Вы используете незарегистрированную версию компонента "Вкладки"!

Поиск

2019 Sidney Bechet Quintet - All that Jazz, Vol. 119 In Concert 1953 {Jube Legends} [24-48]

2019 Sidney Bechet Quintet - All that Jazz, Vol. 119 In Concert 1953 {Jube Legends} [24-48]
Стили:
Носитель:
WEB
Формат:
PCM
Тип рипа:
tracks+.cue
Контейнер:
FLAC (*.flac)
Количество каналов:
2.0
Разрядность/ЧД:
24/48
Битрейт аудио:
lossless
Время звучания:
01:06:20
Наличие сканов:
web
Релизёр (источник):
M0p94ok
Лог проверки качества
foobar2000 1.4.3 / Dynamic Range Meter 1.1.1
log date: 2020-05-30 11:48:13

--------------------------------------------------------------------------------
Analyzed: Sidney Bechet Quintet / All that Jazz, Vol. 119: The Sidney Bechet Quintet in Concert 1953 (2019 Remaster)
--------------------------------------------------------------------------------

DR         Peak         RMS     Duration Track
--------------------------------------------------------------------------------
DR12       0.00 dB   -14.05 dB      6:51 01-Bugle Call Blues (Live)
DR12       0.00 dB   -13.31 dB      3:15 02-Buddy Bolden Stomp (Live)
DR12       0.00 dB   -14.53 dB      6:17 03-Lady be good (Live)
DR15       0.00 dB   -18.07 dB      8:26 04-Basin Street Blues (Live)
DR12       0.00 dB   -13.09 dB      3:41 05-High Society (Live)
DR13       0.00 dB   -16.99 dB      7:46 06-On the sunny side of the street (Live)
DR13       0.00 dB   -15.13 dB      5:47 07-Crazy rhythm (Live)
DR13       0.00 dB   -15.50 dB      4:46 08-C Jam Blues (Live)
DR12       0.00 dB   -15.21 dB      6:16 09-Indiana (Live)
DR9        0.00 dB   -11.50 dB      2:26 10-Knickerbocker Holiday: September Song (Live)
DR14       0.00 dB   -15.66 dB      4:24 11-Jazz Me Blues (Live)
DR12       0.00 dB   -14.99 dB      6:33 12-Honeysuckle Rose (Live)
--------------------------------------------------------------------------------

Number of tracks:  12
Official DR value: DR12

Samplerate:        48000 Hz
Channels:          2
Bits per sample:   24
Bitrate:           1448 kbps
Codec:             FLAC
================================================================================
Any questions - support@pro-jazz.com. Есть вопросы - support@pro-jazz.com
11:59
267
Нет комментариев. Ваш будет первым!