Вы используете незарегистрированную версию компонента "Вкладки"!

Поиск

1974 Doug Carn - Adam's Apple (2019) {Black Jazz} [24-96]

1974 Doug Carn - Adam's Apple (2019) {Black Jazz} [24-96]
Стили:
Битрейт аудио:
lossless
Доп. инфо:

Формат записи/Источник записи: [TR24][OF]
Наличие водяных знаков: Нет
Издание: Remastered
Год издания/переиздания диска: 1974/2019
Издатель (лейбл): Black Jazz Records
Продолжительность: 43:31
Наличие сканов в содержимом раздачи: Только обложка альбома

Контейнер: FLAC (*.flac)
Тип рипа: tracks
Разрядность: 24/96
Формат: PCM
Количество каналов: 2.0

Источник: qobuz.com

Лог проверки качества
foobar2000 1.3.9 / Dynamic Range Meter 1.1.1
log date: 2020-03-14 12:49:52

--------------------------------------------------------------------------------
Analyzed: Doug Carn / Adam's Apple
--------------------------------------------------------------------------------

DR         Peak         RMS     Duration Track
--------------------------------------------------------------------------------
DR12      -1.25 dB   -15.43 dB      4:41 01-Chant
DR11      -1.25 dB   -14.37 dB      5:06 02-Higher Ground
DR12      -1.25 dB   -15.27 dB      3:55 03-Sweet Season
DR13      -1.25 dB   -18.22 dB      7:34 04-Sanctuary
DR12      -1.25 dB   -14.94 dB      5:47 05-Mighty Mighty
DR14      -1.67 dB   -17.87 dB      4:11 06-The Messenger
DR12      -1.24 dB   -14.62 dB      3:35 07-Adam's Apple
DR12      -1.25 dB   -18.25 dB      3:35 08-To A Wild Rose
DR12      -1.25 dB   -15.02 dB      5:07 09-Western Sunrise
--------------------------------------------------------------------------------

Number of tracks:  9
Official DR value: DR12

Samplerate:        96000 Hz
Channels:          2
Bits per sample:   24
Bitrate:           2706 kbps
Codec:             FLAC
================================================================================
Any questions - support@pro-jazz.com. Есть вопросы - support@pro-jazz.com
18:10
244
Нет комментариев. Ваш будет первым!