Вы используете незарегистрированную версию компонента "Вкладки"!

Поиск

2018 Quintoza - First Steps {office4music} [24-48]

2018 Quintoza - First Steps {office4music} [24-48]
Носитель:
WEB
Формат:
PCM
Тип рипа:
tracks+.cue
Контейнер:
FLAC (*.flac)
Количество каналов:
2.0
Разрядность/ЧД:
24/48
Битрейт аудио:
lossless
Время звучания:
00:25:03
Наличие сканов:
web
Страна-производитель диска (релиза):
Brazil
Релизёр (источник):
M0p94ok
Лог проверки качества
foobar2000 1.3.16 / Dynamic Range Meter 1.1.1
log date: 2018-12-31 19:05:04

--------------------------------------------------------------------------------
Analyzed: Quintoza / First Steps
--------------------------------------------------------------------------------

DR         Peak         RMS     Duration Track
--------------------------------------------------------------------------------
DR13      -1.46 dB   -17.85 dB      4:27 01-Just Squeeze Me
DR12      -2.29 dB   -16.67 dB      6:29 02-Samba Em Preludio
DR13       0.00 dB   -16.69 dB      3:53 03-Ghost in This House
DR13      -4.82 dB   -21.32 dB      5:01 04-Save Your Love for Me
DR13      -0.86 dB   -17.53 dB      5:14 05-Bei mir bist du schön
--------------------------------------------------------------------------------

Number of tracks:  5
Official DR value: DR13

Samplerate:        48000 Hz
Channels:          2
Bits per sample:   24
Bitrate:           1480 kbps
Codec:             FLAC
================================================================================
Any questions - support@pro-jazz.com. Есть вопросы - support@pro-jazz.com
07:56
262
Нет комментариев. Ваш будет первым!