Поиск

1973 Doug Carn - Revelation (2020) {Black Jazz} [24-96]

1973 Doug Carn - Revelation (2020) {Black Jazz} [24-96]
Стили:
Битрейт аудио:
lossless
Треклист:

01. God Is One (1:42)
02. Power And Glory (7:59)
03. Revelation (3:46)
04. Naima (4:31)
05. Fatherhood (4:18)
06. Contemplation (4:06)
07. Feel Free (9:14)
08. Time Is Running Out (3:57)
09. Jihad (7:23)

Доп. инфо:

Формат записи/Источник записи: [TR24][OF]
Наличие водяных знаков: Нет
Издание: Remastered
Год издания/переиздания диска: 1973/2020
Издатель (лейбл): Black Jazz Records
Продолжительность: 46:58
Наличие сканов в содержимом раздачи: Только обложка альбома

Контейнер: FLAC (*.flac)
Тип рипа: tracks
Разрядность: 24/96
Формат: PCM
Количество каналов: 2.0

Источник: qobuz.com

Лог проверки качества
foobar2000 1.3.9 / Dynamic Range Meter 1.1.1
log date: 2020-03-14 12:36:31

--------------------------------------------------------------------------------
Analyzed: Doug Carn / Revelation
--------------------------------------------------------------------------------

DR         Peak         RMS     Duration Track
--------------------------------------------------------------------------------
DR11      -1.18 dB   -15.49 dB      1:42 01-God Is One
DR11      -1.17 dB   -14.70 dB      7:59 02-Power And Glory
DR12      -1.18 dB   -14.77 dB      3:46 03-Revelation
DR11      -2.04 dB   -16.21 dB      4:31 04-Naima
DR12      -1.27 dB   -15.95 dB      4:18 05-Fatherhood
DR13      -1.74 dB   -16.76 dB      4:06 06-Contemplation
DR12      -2.06 dB   -17.91 dB      9:14 07-Feel Free
DR12      -1.17 dB   -14.66 dB      3:57 08-Time Is Running Out
DR13      -1.39 dB   -16.68 dB      7:23 09-Jihad
--------------------------------------------------------------------------------

Number of tracks:  9
Official DR value: DR12

Samplerate:        96000 Hz
Channels:          2
Bits per sample:   24
Bitrate:           2607 kbps
Codec:             FLAC
================================================================================
По всем вопросам пишите личное сообщение пользователю M0p94ok.
06:34
352
Нет комментариев. Ваш будет первым!