Вы используете незарегистрированную версию компонента "Вкладки"!

Поиск

1972 Doug Carn - Spirit Of The New Land {Black Jazz} [24-96]

1972 Doug Carn - Spirit Of The New Land {Black Jazz} [24-96]
Стили:
Битрейт аудио:
lossless
Доп. инфо:

Формат записи/Источник записи: [TR24][OF]
Наличие водяных знаков: Нет
Издание: Remastered
Год издания/переиздания диска: 1972/2020
Издатель (лейбл): Black Jazz Records
Продолжительность: 52:57
Наличие сканов в содержимом раздачи: Только обложка альбома

Контейнер: FLAC (*.flac)
Тип рипа: tracks
Разрядность: 24/96
Формат: PCM
Количество каналов: 2.0

Источник: qobuz.com

Лог проверки качества
foobar2000 1.3.9 / Dynamic Range Meter 1.1.1
log date: 2020-03-14 08:23:25

--------------------------------------------------------------------------------
Analyzed: Doug Carn / Spirit Of The New Land
--------------------------------------------------------------------------------

DR         Peak         RMS     Duration Track
--------------------------------------------------------------------------------
DR11      -1.25 dB   -14.92 dB      1:39 01-Dwell Like A Ghost
DR11      -1.24 dB   -14.50 dB     10:09 02-My Spirit
DR11      -1.25 dB   -14.49 dB      9:42 03-Arise And Shine
DR11      -1.91 dB   -15.34 dB      5:23 04-Blue In Green
DR11      -1.25 dB   -14.18 dB      8:39 05-Trance Dance
DR11      -1.24 dB   -14.19 dB     11:58 06-Search For The New Land
DR11      -1.25 dB   -13.91 dB      5:26 07-New Moon
--------------------------------------------------------------------------------

Number of tracks:  7
Official DR value: DR11

Samplerate:        96000 Hz
Channels:          2
Bits per sample:   24
Bitrate:           2597 kbps
Codec:             FLAC
================================================================================
Any questions - support@pro-jazz.com. Есть вопросы - support@pro-jazz.com
20:47
221
Нет комментариев. Ваш будет первым!