Вы используете незарегистрированную версию компонента "Вкладки"!

Поиск

2019 Chet Baker - Chet Sings: At His Best! {RevOla CREVV 1414} [24-44,1]

2019 Chet Baker - Chet Sings: At His Best! {RevOla CREVV 1414} [24-44,1]
Дата издания диска:
19 декабря 2019
Издатель (лейбл):
Номер по каталогу:
CREVV 1414
Носитель:
WEB
Формат:
PCM
Тип рипа:
tracks+.cue
Контейнер:
FLAC (*.flac)
Количество каналов:
2.0
Разрядность/ЧД:
24/44,1
Битрейт аудио:
lossless
Наличие сканов:
web
Страна-производитель диска (релиза):
USA
Релизёр (источник):
M0p94ok
Лог проверки качества
foobar2000 1.5.5 / Dynamic Range Meter 1.1.1
log date: 2020-09-08 09:56:50

--------------------------------------------------------------------------------
Analyzed: Chet Baker / Chet Sings: At His Best!
--------------------------------------------------------------------------------

DR         Peak         RMS     Duration Track
--------------------------------------------------------------------------------
DR12      -4.56 dB   -21.35 dB      2:51 01-The Thrill Is Gone (Remastered)
DR12      -3.71 dB   -19.71 dB      3:04 02-But Not for Me (Remastered)
DR12      -3.13 dB   -21.81 dB      2:46 03-Time After Time (Remastered)
DR13      -6.66 dB   -23.33 dB      2:59 04-I Get Along Without You Very Well (Remastered)
DR15      -3.15 dB   -21.83 dB      3:00 05-There Will Never Be Another You (Remastered)
DR14      -2.98 dB   -20.55 dB      2:41 06-Look for the Silver Lining (Remastered)
DR12      -9.26 dB   -25.85 dB      2:20 07-My Funny Valentine (Remastered)
DR15      -3.08 dB   -23.06 dB      3:20 08-I Fall in Love Too Easily (Remastered)
DR16      -2.89 dB   -21.52 dB      2:44 09-Daybreak (Remastered)
DR16      -3.28 dB   -23.16 dB      2:44 10-Just Friends (Remastered)
DR16      -4.38 dB   -23.43 dB      3:16 11-I Remember You (Remastered)
DR15      -4.69 dB   -22.36 dB      3:45 12-Let's Get Lost (Remastered)
DR15      -4.53 dB   -22.63 dB      4:00 13-Long Ago (And Far Away) (Remastered)
DR13      -7.53 dB   -24.88 dB      4:53 14-You Don't Know What Love Is (Remastered)
DR15      -4.80 dB   -24.06 dB      3:03 15-That Old Feeling (Remastered)
DR14      -7.82 dB   -27.06 dB      3:35 16-It's Always You (Remastered)
DR15      -8.16 dB   -26.99 dB      4:29 17-I've Never Been in Love Before (Remastered)
DR16      -6.94 dB   -25.33 dB      3:20 18-My Buddy (Remastered)
DR12     -14.18 dB   -29.13 dB      2:26 19-Like Someone in Love (Remastered)
DR15     -12.61 dB   -31.36 dB      4:21 20-My Ideal (Remastered)
--------------------------------------------------------------------------------

Number of tracks:  20
Official DR value: DR14

Samplerate:        44100 Hz
Channels:          2
Bits per sample:   24
Bitrate:           1059 kbps
Codec:             FLAC
================================================================================
Any questions - support@pro-jazz.com. Есть вопросы - support@pro-jazz.com
10:15
212
Нет комментариев. Ваш будет первым!