Вы используете незарегистрированную версию компонента "Вкладки"!

Поиск

2017 Three Fall & Melane - Four {ACT Music 9676} [24-48]

2017 Three Fall & Melane - Four {ACT Music 9676} [24-48]
Издатель (лейбл):
Номер по каталогу:
9676
Носитель:
WEB
Формат:
PCM
Тип рипа:
tracks+.cue
Контейнер:
FLAC (*.flac)
Количество каналов:
2.0
Разрядность/ЧД:
24/48
Битрейт аудио:
lossless
Время звучания:
01:01:05
Наличие сканов:
да
Страна-производитель диска (релиза):
Germany
Релизёр (источник):
M0p94ok
Лог проверки качества
foobar2000 1.3.16 / Dynamic Range Meter 1.1.1
log date: 2018-12-09 02:15:53

--------------------------------------------------------------------------------
Analyzed: Three Fall with Melane / Four
--------------------------------------------------------------------------------

DR         Peak         RMS     Duration Track
--------------------------------------------------------------------------------
DR9       -1.51 dB   -13.81 dB      0:47 01-Meta (Intro)
DR6       -0.58 dB    -8.02 dB      4:31 02-Medium Rare
DR5       -0.58 dB    -7.16 dB      3:23 03-Ain't Nobody Got Time for That
DR6       -0.58 dB    -8.12 dB      4:56 04-Tata Na Lola
DR5       -0.58 dB    -8.16 dB      4:17 05-Elevation of Love
DR5       -0.58 dB    -7.23 dB      3:33 06-Thank You
DR6       -0.58 dB    -8.76 dB      5:39 07-Silver & Gold
DR6       -0.58 dB    -8.73 dB      5:15 08-Moto Pamba
DR5       -0.58 dB    -7.86 dB      6:32 09-Lmnts
DR6       -0.58 dB    -8.59 dB      4:53 10-People
DR6       -0.58 dB    -8.27 dB      4:21 11-Release
DR4       -0.58 dB    -7.42 dB      4:20 12-All That She Wants
DR6       -0.58 dB    -8.93 dB      3:01 13-Alexandria
DR6       -0.58 dB    -8.55 dB      5:01 14-Lampion
DR5       -0.58 dB    -8.50 dB      0:36 15-Morphose (Outro)
--------------------------------------------------------------------------------

Number of tracks:  15
Official DR value: DR6

Samplerate:        48000 Hz
Channels:          2
Bits per sample:   24
Bitrate:           1550 kbps
Codec:             FLAC
================================================================================
Any questions - support@pro-jazz.com. Есть вопросы - support@pro-jazz.com
12:42
257
Нет комментариев. Ваш будет первым!