Вы используете незарегистрированную версию компонента "Вкладки"!

Поиск

1977 Pat Metheny - Watercolors (2020) {ECM} [24-96]

1977 Pat Metheny - Watercolors (2020) {ECM} [24-96]
Стили:
Издатель (лейбл):
Битрейт аудио:
lossless
Доп. инфо:

Формат записи/Источник записи: [TR24][OF]
Издание: Remastered
Год издания/переиздания диска: 1977/2020
Продолжительность: 00:41:58
Наличие сканов в содержимом раздачи: Буклет PDF

Контейнер: FLAC (*.flac)
Тип рипа: tracks
Разрядность: 24/96
Количество каналов: 2.0

Источник (релизер): e-onkyo

Лог проверки качества
foobar2000 1.4.3 / Dynamic Range Meter 1.1.1
log date: 2020-07-31 20:25:03

--------------------------------------------------------------------------------
Analyzed: Pat Metheny / Watercolors
--------------------------------------------------------------------------------

DR         Peak         RMS     Duration Track
--------------------------------------------------------------------------------
DR12      -2.53 dB   -18.18 dB      6:36 01-Watercolors
DR14      -5.20 dB   -23.45 dB      6:09 02-Icefire
DR11      -6.28 dB   -22.03 dB      4:06 03-Oasis
DR12      -1.85 dB   -16.92 dB      4:47 04-Lakes
DR14      -0.75 dB   -17.18 dB      5:00 05-River Quay
DR14      -0.94 dB   -19.13 dB      2:34 06-Suite: I. Florida Greeting Song
DR16      -5.13 dB   -24.92 dB      2:32 07-Suite: II. Legend Of The Fountain
DR13      -1.79 dB   -19.72 dB     10:17 08-Sea Song
--------------------------------------------------------------------------------

Number of tracks:  8
Official DR value: DR13

Samplerate:        96000 Hz
Channels:          2
Bits per sample:   24
Bitrate:           2540 kbps
Codec:             FLAC
================================================================================
Any questions - support@pro-jazz.com. Есть вопросы - support@pro-jazz.com
14:54
202
Нет комментариев. Ваш будет первым!