Поиск

2018 Jai-Jagdeesh - Down Come the Walls {Spirit Voyage} [24-96]

2018 Jai-Jagdeesh - Down Come the Walls {Spirit Voyage} [24-96]
Стили:
Издатель (лейбл):
Носитель:
WEB
Формат:
PCM
Тип рипа:
tracks+.cue
Контейнер:
FLAC (*.flac)
Количество каналов:
2.0
Разрядность/ЧД:
24/96
Битрейт аудио:
lossless
Время звучания:
01:18:10
Наличие сканов:
web
Релизёр (источник):
M0p94ok

This album is available on our DC++ hub: dc.pro-jazz.com
Этот альбом доступен на нашем DC++ хабе: dc.pro-jazz.com

Треклист:

1. Aykaa Maaee  09:28
2. She Kissed Me  08:18
3. The Gift (Aasees)  09:58
4. Hold Your Hand  08:14
5. Laya Yoga  09:13
6. 13 Times  04:03
7. Har Har Har Gobinday  07:04
8. Requiem/We Are Love  11:50
9. Sohung (Sa Ta Na Ma) (Digital Exclusive)  09:56

Лог проверки качества
foobar2000 1.5.5 / Dynamic Range Meter 1.1.1
log date: 2020-09-07 09:20:36

--------------------------------------------------------------------------------
Analyzed: Jai-Jagdeesh / Down Come the Walls
--------------------------------------------------------------------------------

DR         Peak         RMS     Duration Track
--------------------------------------------------------------------------------
DR11      -0.22 dB   -16.06 dB      9:29 01-Aykaa Maaee
DR16      -0.22 dB   -20.14 dB      8:18 02-She Kissed Me
DR11      -0.32 dB   -16.43 dB      9:59 03-The Gift (Aasees)
DR12      -0.36 dB   -15.63 dB      8:15 04-Hold Your Hand
DR11      -0.20 dB   -15.48 dB      9:14 05-Laya Yoga
DR11      -0.24 dB   -16.21 dB      4:03 06-13 Times
DR12      -0.22 dB   -16.60 dB      7:04 07-Har Har Har Gobinday
DR12      -0.22 dB   -17.68 dB     11:50 08-Requiem/We Are Love
DR11      -0.20 dB   -15.35 dB      9:57 09-Sohung (Sa Ta Na Ma) (Digital Exclusive)
--------------------------------------------------------------------------------

Number of tracks:  9
Official DR value: DR12

Samplerate:        96000 Hz
Channels:          2
Bits per sample:   24
Bitrate:           2612 kbps
Codec:             FLAC
================================================================================
08:24
689
Нет комментариев. Ваш будет первым!