Вы используете незарегистрированную версию компонента "Вкладки"!

Поиск

2019 Barbara Dennerlein - Studio Konzert for Headphones {Neuklang NLP4125} [24-96]

2019 Barbara Dennerlein - Studio Konzert for Headphones {Neuklang NLP4125} [24-96]
Стили:
Издатель (лейбл):
Номер по каталогу:
NLP4125
Битрейт аудио:
lossless
Доп. инфо:

Формат записи/Источник записи: [TR24][OF]
Год издания/переиздания диска: 2019
Издатель (лейбл): Neuklang
Продолжительность: 00:26:11
Наличие сканов в содержимом раздачи: Нет
Контейнер: FLAC (*.flac)
Тип рипа: tracks
Разрядность: 24/96
Количество каналов: 2.0

Источник (релизер): Qobuz

Лог проверки качества
foobar2000 1.4.3 / Dynamic Range Meter 1.1.1
log date: 2020-05-28 15:50:14

--------------------------------------------------------------------------------
Analyzed: Barbara Dennerlein / Studio Konzert for Headphones
--------------------------------------------------------------------------------

DR         Peak         RMS     Duration Track
--------------------------------------------------------------------------------
DR11      -0.97 dB   -13.73 dB      5:28 01-Gray May Blues  (For Headphones)
DR11      -0.95 dB   -13.36 dB      5:53 02-Southern Funk  (For Headphones)
DR10      -0.69 dB   -13.40 dB      8:53 03-Bluesy  (For Headphones)
DR10      -0.95 dB   -12.29 dB      6:00 04-Under Construction  (For Headphones)
--------------------------------------------------------------------------------

Number of tracks:  4
Official DR value: DR11

Samplerate:        96000 Hz
Channels:          2
Bits per sample:   24
Bitrate:           2760 kbps
Codec:             FLAC
================================================================================
Any questions - support@pro-jazz.com. Есть вопросы - support@pro-jazz.com
08:44
364
Нет комментариев. Ваш будет первым!