Вы используете незарегистрированную версию компонента "Вкладки"!

Поиск

2011 Viktoria Tolstoy - Letters to Herbie {ACT Music} [24-44,1]

2011 Viktoria Tolstoy - Letters to Herbie {ACT Music} [24-44,1]
Стили:
Издатель (лейбл):
Битрейт аудио:
lossless
Доп. инфо:

Формат записи/Источник записи: [TR24][OF]
Год издания/переиздания диска: 2011
Продолжительность: 00:57:15
Наличие сканов в содержимом раздачи: Буклет PDF

Контейнер: FLAC (*.flac)
Тип рипа: tracks
Разрядность: 24/44,1
Количество каналов: 2.0

Источник (релизер): HIGHRESAUDIO

Лог проверки качества
foobar2000 1.4.3 / Dynamic Range Meter 1.1.1
log date: 2020-05-27 14:24:49

--------------------------------------------------------------------------------
Analyzed: Viktoria Tolstoy / Letters To Herbie
--------------------------------------------------------------------------------

DR         Peak         RMS     Duration Track
--------------------------------------------------------------------------------
DR10      -0.64 dB   -11.87 dB      4:02 01-Trust Me
DR10      -0.26 dB   -12.20 dB      5:23 02-Textures
DR9       -0.69 dB   -11.81 dB      5:38 03-I Thought It Was You
DR11      -0.73 dB   -14.51 dB      3:54 04-Chan’s Song
DR9       -0.61 dB   -11.77 dB      4:15 05-Butterfly
DR11      -0.73 dB   -13.08 dB      5:57 06-Come Running To Me
DR10      -0.47 dB   -12.29 dB      3:46 07-Give It All Your Heart
DR10      -0.61 dB   -12.07 dB      4:08 08-Letter To Herbie
DR9       -0.70 dB   -11.87 dB      3:42 09-Paradise
DR10      -0.72 dB   -14.45 dB      4:49 10-Chemical Residue
DR10      -0.62 dB   -12.09 dB      3:52 11-Tell Me A Bedtime Story
DR10      -2.53 dB   -15.05 dB      3:47 12-Naima
DR10      -0.63 dB   -12.33 dB      4:05 13-Come On, Come Over
--------------------------------------------------------------------------------

Number of tracks:  13
Official DR value: DR10

Samplerate:        44100 Hz
Channels:          2
Bits per sample:   24
Bitrate:           1535 kbps
Codec:             FLAC
================================================================================
Any questions - support@pro-jazz.com. Есть вопросы - support@pro-jazz.com
10:05
272
Нет комментариев. Ваш будет первым!