Вы используете незарегистрированную версию компонента "Вкладки"!

Поиск

1958 Peggy Lee - Things Are Swingin' (2019) {RevOla} [24-44,1]

1958 Peggy Lee - Things Are Swingin' (2019) {RevOla} [24-44,1]
Стили:
Издатель (лейбл):
Битрейт аудио:
lossless
Доп. инфо:

Формат записи/Источник записи: [TR24][OF]
Издание: Remastered
Год издания/переиздания диска: 1958/2019
Издатель (лейбл): RevOla
Продолжительность: 00:52:03
Наличие сканов в содержимом раздачи: Нет

Контейнер: FLAC (*.flac)
Тип рипа: tracks
Разрядность: 24/44,1
Количество каналов: 2.0

Источник (релизер): Qobuz

Лог проверки качества
foobar2000 1.3.16 / Dynamic Range Meter 1.1.1
log date: 2019-03-24 23:27:50

--------------------------------------------------------------------------------
Analyzed: Peggy Lee / Things Are Swingin'
--------------------------------------------------------------------------------

DR         Peak         RMS     Duration Track
--------------------------------------------------------------------------------
DR14      -5.93 dB   -22.26 dB      2:14 01-It's A Wonderful World
DR13      -6.58 dB   -22.32 dB      2:10 02-Things Are Swingin'
DR14      -4.74 dB   -21.47 dB      2:52 03-Alright, Okay, You Win
DR13      -6.03 dB   -21.88 dB      2:07 04-Ridin' High
DR13      -6.69 dB   -22.20 dB      2:18 05-It's Been A Long, Long Time
DR10      -8.70 dB   -20.70 dB      2:15 06-Lullaby In Rhythm
DR14      -4.34 dB   -20.67 dB      2:05 07-Alone Together
DR14      -4.05 dB   -21.00 dB      1:46 08-I'm Beginning To See The Light
DR15      -3.96 dB   -20.66 dB      1:55 09-It's A Good, Good Night
DR13      -6.04 dB   -21.56 dB      2:40 10-You're Getting To Be A Habit With Me
DR13      -7.52 dB   -22.35 dB      1:47 11-You're Mine, You
DR14      -3.67 dB   -20.20 dB      3:13 12-Life Is For Livin'
DR13      -3.10 dB   -18.71 dB      2:08 13-Jump For Joy
DR12      -5.27 dB   -18.87 dB      2:26 14-Back In Your Own Back Yard
DR11      -5.54 dB   -19.44 dB      1:59 15-When My Sugar Walks Down The Street
DR11      -5.17 dB   -18.79 dB      2:07 16-I Hear Music
DR12      -5.38 dB   -19.99 dB      2:51 17-Just In Time
DR13      -3.84 dB   -19.46 dB      2:58 18-Old Devil Moon
DR11      -4.09 dB   -17.58 dB      2:42 19-What A Little Moonlight Can Do
DR13      -5.38 dB   -21.05 dB      2:33 20-Four Or Five Times
DR12      -5.63 dB   -20.27 dB      2:30 21-Music! Music! Music!
DR12      -3.55 dB   -18.72 dB      2:38 22-The Glory Of Love
--------------------------------------------------------------------------------

Number of tracks:  22
Official DR value: DR13

Samplerate:        44100 Hz
Channels:          2
Bits per sample:   24
Bitrate:           734 kbps
Codec:             FLAC
================================================================================
Any questions - support@pro-jazz.com. Есть вопросы - support@pro-jazz.com
22:55
253
Нет комментариев. Ваш будет первым!