Поиск

2018 Tuca Oliveira - As Flores do Começo {Tuca Oliveira} [24-44,1]

2018 Tuca Oliveira - As Flores do Começo {Tuca Oliveira} [24-44,1]
Дата издания диска:
8 марта 2018
Носитель:
WEB
Формат:
PCM
Тип рипа:
tracks+.cue
Контейнер:
APE (*.ape)
Количество каналов:
2.0
Разрядность/ЧД:
24/44,1
Битрейт аудио:
lossless
Время звучания:
00:37:59
Наличие сканов:
web
Наличие водяных знаков:
нет
Страна-производитель диска (релиза):
Brazil
Релизёр (источник):
M0p94ok

Треклист:

01. Fotos em Cartões  04:17
02. Caixa Postal  02:55
03. No Mesmo Tom  03:50
04. Coincidência  03:25
05. Eu, Você e as Estrelas  03:37
06. Teu Bem  03:59
07. Tão Distante  04:24
08. Visita  03:07
09. Banca de Jornal  04:36
10. Simples Cantador  03:49

Лог проверки качества
foobar2000 1.3.16 / Dynamic Range Meter 1.1.1
log date: 2019-03-26 18:41:54

--------------------------------------------------------------------------------
Analyzed: Tuca Oliveira / As Flores do Começo
--------------------------------------------------------------------------------

DR         Peak         RMS     Duration Track
--------------------------------------------------------------------------------
DR6       -0.01 dB    -7.97 dB      4:17 01-Fotos em Cartões
DR7       -0.01 dB    -8.13 dB      2:55 02-Caixa Postal
DR7       -0.01 dB    -8.71 dB      3:50 03-No Mesmo Tom
DR7       -0.01 dB    -9.57 dB      3:25 04-Coincidência
DR7       -0.01 dB    -7.91 dB      3:37 05-Eu, Você e as Estrelas
DR7       -0.01 dB    -9.35 dB      3:59 06-Teu Bem
DR7       -0.01 dB    -8.50 dB      4:24 07-Tão Distante
DR7       -0.01 dB    -8.34 dB      3:07 08-Visita
DR7       -0.01 dB    -8.12 dB      4:36 09-Banca de Jornal
DR7       -0.01 dB    -8.50 dB      3:49 10-Simples Cantador
--------------------------------------------------------------------------------

Number of tracks:  10
Official DR value: DR7

Samplerate:        44100 Hz
Channels:          2
Bits per sample:   24
Bitrate:           1671 kbps
Codec:             FLAC
================================================================================
Приватный:
Нет (DHT включён)
Размер:
461.71 Мб (484,141,244 байт) » файлов: 12
Участники:
9 раздают, 0 качают (9 участников всего)
Внешние участники:
--- [ Обновить ]
No seeders - write personal message to M0p94ok. Any questions - support@pro-jazz.com.
Нет сидеров - пишите в личку M0p94ok. Есть вопросы - support@pro-jazz.com
12:17
171
Нет комментариев. Ваш будет первым!