Вы используете незарегистрированную версию компонента "Вкладки"!

Поиск

2019 Trapper Keaper - Meets Tim Berne & Aurora Nealand {ears&eyes} [24-96]

2019 Trapper Keaper - Meets Tim Berne & Aurora Nealand {ears&eyes} [24-96]
Дата издания диска:
12 апреля 2019
Битрейт аудио:
lossless
Доп. инфо:

Формат записи/Источник записи: [TR24][OF]
Год издания: 2019
Издатель (лейбл): ears&eyes Records
Продолжительность: 45:32
Контейнер: FLAC (*.flac)
Тип рипа: tracks
Разрядность: 24/96
Количество каналов: 2.0
Источник: WEB
Наличие сканов в содержимом раздачи: Нет

Лог проверки качества
foobar2000 1.3.9 / Замер динамического диапазона (DR) 1.1.1
Дата отчёта:  2020-10-22 14:48:09

--------------------------------------------------------------------------------
Анализ:   Trapper Keaper / Meets Tim Berne & Aurora Nealand
--------------------------------------------------------------------------------

DR         Пики         RMS           Продолжительность трека
--------------------------------------------------------------------------------
DR5       -0.31 дБ    -7.20 дБ      1:58 1-Boom
DR6       -0.31 дБ    -9.89 дБ      7:19 2-Trapper Keaper Meets Tim & Aurora
DR8       -0.31 дБ   -12.39 дБ      5:33 3-Unidentified Flying Objection
DR8       -0.31 дБ   -11.31 дБ      6:39 4-Passage
DR10      -0.32 дБ   -15.07 дБ      1:56 5-Lines of Electrical Wire
DR10      -0.31 дБ   -13.72 дБ      4:10 6-Flame Among Ashes
DR7       -0.31 дБ   -10.12 дБ      3:53 7-Warm in Between
DR10      -0.31 дБ   -12.88 дБ      4:29 8-Leaky Faucet
DR9       -0.31 дБ   -11.64 дБ      4:15 9-Pins and Needles
DR12      -6.67 дБ   -23.26 дБ      5:21 10-Amarcord (Fellini Memories)
--------------------------------------------------------------------------------

Количество треков: 10
Реальные значения DR: DR8

Частота:   96000 Гц
Каналов:   2
Разрядность:   24
Битрейт:   2608 кбит/с
Кодек:   FLAC
================================================================================
Any questions - support@pro-jazz.com. Есть вопросы - support@pro-jazz.com
10:39
290
Нет комментариев. Ваш будет первым!