Поиск

1956 Thelonious Monk - Plays Duke Ellington (2016) {Riverside} [24-44,1]

1956 Thelonious Monk - Plays Duke Ellington (2016) {Riverside} [24-44,1]
Стили:
Дата записи диска:
21 июля и 27 июля 1955
Место записи:
Van Gelder Recording Studio, Englewood Cliffs, New Jersey, USA
Дата издания диска:
1 февраля 1956
Дата переиздания диска:
7 октября 2016
Издатель (лейбл):
Номер по каталогу:
5062611
Носитель:
WEB
Формат:
PCM
Тип рипа:
tracks+.cue
Контейнер:
APE (*.ape)
Количество каналов:
2.0
Разрядность/ЧД:
24/44,1
Битрейт аудио:
lossless
Время звучания:
00:37:22
Наличие сканов:
web
Страна-производитель диска (релиза):
USA
Релизёр (источник):
M0p94ok
Лог проверки качества
foobar2000 1.5.5 / Dynamic Range Meter 1.1.1
log date: 2020-11-26 18:33:16

--------------------------------------------------------------------------------
Analyzed: Thelonious Monk / Thelonious Monk Plays Duke Ellington
--------------------------------------------------------------------------------

DR         Peak         RMS     Duration Track
--------------------------------------------------------------------------------
DR13      -5.95 dB   -22.52 dB      4:40 01-It Don’t Mean A Thing If It Ain't Got That Thing
DR14      -7.11 dB   -24.87 dB      4:33 02-Sophisticated Lady
DR15      -4.87 dB   -23.58 dB      5:59 03-I Got It Bad And That Ain't Good
DR14      -6.17 dB   -24.10 dB      3:30 04-Black And Tan Fantasy
DR14      -4.17 dB   -22.15 dB      3:17 05-Mood Indigo
DR13      -4.61 dB   -20.70 dB      5:44 06-I Let A Song Go Out Of My Head
DR15      -5.97 dB   -24.76 dB      3:45 07-Solitude
DR12      -6.15 dB   -22.15 dB      5:58 08-Caravan
--------------------------------------------------------------------------------

Number of tracks:  8
Official DR value: DR14

Samplerate:        44100 Hz
Channels:          2
Bits per sample:   24
Bitrate:           1194 kbps
Codec:             FLAC
================================================================================
No seeders - write personal message to M0p94ok. Any questions - support@pro-jazz.com.
Нет сидеров - пишите в личку M0p94ok. Есть вопросы - support@pro-jazz.com
15:23
203
Нет комментариев. Ваш будет первым!