Поиск

2018 Tower Of Power - Soul Side Of Town {Artistry Music ART7059} [24-96]

2018 Tower Of Power - Soul Side Of Town {Artistry Music ART7059} [24-96]
Стили:
Издатель (лейбл):

Состав:
  • Emilio Castillo tenor saxophone, leader, co-producer
  • Stephen “Doc” Kupka baritone saxophone
  • Joe Vannelli engineer
  • Bernie Grundman engineer
  • David Garibaldi drums
  • Francis Rocco Prestia bass
  • Jerry Cortez guitar
  • Roger Smith Hammond B3 organ/keyboard
  • Tom Politzer tenor saxophone
  • Adolfo Acosta trumpet
  • Sal Cracchiolo trumpet
  • Ray Greene vocals
  • Marcus Scott vocals

Формат записи/Источник записи: [TR24][OF]
Наличие водяных знаков: Нет
Год издания/переиздания диска: 2018
Продолжительность: 59:15
Наличие сканов в содержимом раздачи: Только обложка альбома
Контейнер: FLAC (*.flac)
Тип рипа: tracks
Разрядность: 24/96
Формат: PCM
Количество каналов: 2.0
Источник: qobuz.com

Треклист:
01. East Bay! All Day! (0:56)
02. Hangin' With My Baby (5:28)
03. Do You Like That? (4:37)
04. On The Soul Side Of Town (6:40)
05. Do It With Soul (3:53)
06. Love Must Be Patient And Kind (4:40)
07. Butter Fried (5:29)
08. Selah (4:49)
09. Let It Go (4:22)
10. Stop (4:25)
11. When Love Takes Control (4:11)
12. After Hours (3:33)
13. Can't Stop Thinking About You (4:55)
14. East Bay! Oakland Style! (1:16)

 
Лог проверки качества
foobar2000 1.3.9 / Dynamic Range Meter 1.1.1
log date: 2018-05-29 23:10:17
--------------------------------------------------------------------------------
Analyzed: Tower Of Power / Soul Side Of Town
--------------------------------------------------------------------------------
DR         Peak         RMS     Duration Track
--------------------------------------------------------------------------------
DR9        0.00 dB   -10.34 dB      0:56 01-East Bay! All Day!
DR9        0.00 dB   -10.48 dB      5:28 02-Hangin' With My Baby
DR8        0.00 dB    -9.50 dB      4:37 03-Do You Like That?
DR9        0.00 dB   -10.46 dB      6:40 04-On The Soul Side Of Town
DR9        0.00 dB   -10.67 dB      3:53 05-Do It With Soul
DR9        0.00 dB   -10.86 dB      4:40 06-Love Must Be Patient And Kind
DR8       -0.32 dB   -10.03 dB      5:29 07-Butter Fried
DR9        0.00 dB    -9.92 dB      4:49 08-Selah
DR9        0.00 dB   -10.02 dB      4:22 09-Let It Go
DR9        0.00 dB   -10.55 dB      4:25 10-Stop
DR9        0.00 dB    -9.91 dB      4:11 11-When Love Takes Control
DR10       0.00 dB   -11.12 dB      3:33 12-After Hours
DR8        0.00 dB    -9.11 dB      4:55 13-Can't Stop Thinking About You
DR9        0.00 dB   -10.32 dB      1:16 14-East Bay! Oakland Style!
--------------------------------------------------------------------------------
Number of tracks:  14
Official DR value: DR9
Samplerate:        96000 Hz
Channels:          2
Bits per sample:   24
Bitrate:           2907 kbps
Codec:             FLAC
================================================================================

 

Приватный:
Нет (DHT включён)
Размер:
1.24 Гб (1,327,177,599 байт) » файлов: 17
Участники:
0 раздают, 1 качают (1 участников всего)
Внешние участники:
--- [ Обновить ]
Скорость:
227.56 Кб/c 0/c
23:46
81
RSS
Нет комментариев. Ваш будет первым!