Поиск

2018 Luke Howard - Open Heart Story {Mercury KX} [24-96]

2018 Luke Howard - Open Heart Story {Mercury KX} [24-96]
Издатель (лейбл):

Состав:

Luke Howard — Piano, Composer

Формат записи/Источник записи: [TR24][OF]
Наличие водяных знаков: Нет
Год издания/переиздания диска: 25 мая 2018
Номер по каталогу: 00602567041566
Продолжительность: 58:33
Наличие сканов в содержимом раздачи: Только обложка альбома
Контейнер: FLAC (*.flac)
Тип рипа: tracks
Разрядность: 24/96
Формат: PCM
Количество каналов: 2.0
Источник: qobuz.com

Треклист:
01. Prelude For A Single Voice (1:21)
02. Bear Story I (1:34)
03. Bear Story II (4:03)
04. In Metaphor, Solace (2:33)
05. A Long Life (3:28)
06. Elysian Fields (3:41)
07. In Praise Of Shadows (5:47)
08. Hymn (5:44)
09. Blossom (1:33)
10. Solstice (2:21)
11. Trembling (2:00)
12. Circles (1:57)
13. I Still Dream About You, Sometimes But Not Always (6:10)
14. Remembering My Childhood (2:21)
15. Hymn (Piano Version) (4:39)
16. The Map Is Not The Territory (5:29)
17. I Still Dream About You, Sometimes But Not Always (Piano Version) (3:51)

 
Лог проверки качества
foobar2000 1.3.9 / Dynamic Range Meter 1.1.1
log date: 2018-05-28 17:34:10
--------------------------------------------------------------------------------
Analyzed: Luke Howard / Open Heart Story
--------------------------------------------------------------------------------
DR         Peak         RMS     Duration Track
--------------------------------------------------------------------------------
DR11      -4.27 dB   -18.26 dB      1:21 01-Prelude For A Single Voice
DR13      -0.35 dB   -17.85 dB      1:34 02-Bear Story I
DR8       -0.35 dB   -12.90 dB      4:03 03-Bear Story II
DR11      -0.35 dB   -15.96 dB      2:33 04-In Metaphor, Solace
DR10      -0.35 dB   -14.22 dB      3:28 05-A Long Life
DR13      -0.35 dB   -20.04 dB      3:41 06-Elysian Fields
DR12      -0.53 dB   -17.58 dB      5:47 07-In Praise Of Shadows
DR10      -0.35 dB   -14.13 dB      5:44 08-Hymn
DR11      -4.60 dB   -19.42 dB      1:33 09-Blossom
DR13      -0.35 dB   -18.81 dB      2:21 10-Solstice
DR9       -5.50 dB   -18.76 dB      2:00 11-Trembling
DR12      -0.40 dB   -17.31 dB      1:57 12-Circles
DR12      -0.35 dB   -16.55 dB      6:10 13-I Still Dream About You, Sometimes But Not Always
DR10      -0.35 dB   -14.93 dB      2:21 14-Remembering My Childhood
DR13      -2.97 dB   -20.08 dB      4:39 15-Hymn (Piano Version)
DR12      -1.26 dB   -17.79 dB      5:29 16-The Map Is Not The Territory
DR12      -1.60 dB   -18.13 dB      3:51 17-I Still Dream About You, Sometimes But Not Always (Piano Version)
--------------------------------------------------------------------------------
Number of tracks:  17
Official DR value: DR11
Samplerate:        96000 Hz
Channels:          2
Bits per sample:   24
Bitrate:           2105 kbps
Codec:             FLAC
================================================================================

 

Скачивание доступно после регистрации!!
Приватный:
Нет (DHT включён)
Размер:
999.45 Мб (1,048,001,210 байт) » файлов: 21
Участники:
1 раздают, 0 качают (1 участников всего)
Внешние участники:
--- [ Обновить ]
Скорость:
0/c 180.00 байт/c
20:45
63
RSS
Нет комментариев. Ваш будет первым!