Поиск

2018 Pierre de Bethmann - Shifters {ALEA} [24-96]

2018 Pierre de Bethmann - Shifters {ALEA} [24-96]
Стили:

Состав:
  • Pierre de Bethmann piano
  • Laurent Coulondre org, kb
  • Pierre-Alain Tocanier dms
  • Stéphane Edouard perc

Записано 28, 29 и 30 апреля 2014 в студии Barge Music (Vannes), par Philippe Gaillot et Jonathan Marcoz

Микс и мастеринг Philippe Gaillot в студии Recall (Pompignan)

Формат записи/Источник записи: [TR24][OF]
Наличие водяных знаков: Нет
Год издания/переиздания диска: 2018
Издатель (лейбл): ALEA
Продолжительность: 52:19
Наличие сканов в содержимом раздачи: Буклет PDF
Контейнер: FLAC (*.flac)
Тип рипа: tracks
Разрядность: 24/96
Формат: PCM
Количество каналов: 2.0
Источник: qobuz.com

Треклист:
01. Troll Free (6:47)
02. Beat Coin (7:27)
03. Chut (6:44)
04. What's New (6:21)
05. Ritournelle (1:40)
06. Happy Faces (9:17)
07. Mono (4:39)
08. Shift (6:08)
09. Troll Free End (3:16)

 
Лог проверки качества
foobar2000 1.3.9 / Dynamic Range Meter 1.1.1
log date: 2018-05-29 23:25:40
--------------------------------------------------------------------------------
Analyzed: Pierre de Bethmann / Shifters
--------------------------------------------------------------------------------
DR         Peak         RMS     Duration Track
--------------------------------------------------------------------------------
DR8       -1.11 dB   -11.33 dB      6:47 01-Troll Free
DR8       -1.11 dB   -10.61 dB      7:27 02-Beat Coin
DR7       -1.11 dB   -10.72 dB      6:44 03-Chut
DR6       -1.11 dB    -8.96 dB      6:21 04-What's New
DR8       -1.11 dB   -12.00 dB      1:40 05-Ritournelle
DR8       -1.11 dB   -11.22 dB      9:17 06-Happy Faces
DR8       -1.11 dB   -11.19 dB      4:39 07-Mono
DR6       -1.11 dB   -10.43 dB      6:08 08-Shift
DR9       -1.11 dB   -12.06 dB      3:16 09-Troll Free End
--------------------------------------------------------------------------------
Number of tracks:  9
Official DR value: DR8
Samplerate:        96000 Hz
Channels:          2
Bits per sample:   24
Bitrate:           3099 kbps
Codec:             FLAC
================================================================================

 

Скачивание доступно после регистрации!!
Приватный:
Нет (DHT включён)
Размер:
1.12 Гб (1,205,760,272 байт) » файлов: 13
Участники:
0 раздают, 0 качают (0 участников всего)
Внешние участники:
--- [ Обновить ]
13:53
52
RSS
Нет комментариев. Ваш будет первым!