Поиск

2018 Adam Nussbaum - The Lead Belly Project {Sunnyside SSC 1500} [24-88,2]

2018 Adam Nussbaum - The Lead Belly Project {Sunnyside SSC 1500} [24-88,2]
Стили:
Издатель (лейбл):
Состав:
  • Adam Nussbaum  — drums
  • Ohad Talmor - saxophone
  • Steve Cardenas - guitar
  • Nate Radley - guitar

Формат записи/Источник записи: [TR24][OF]
Дата издания: 23 февраля 2018
Номер по каталогу: SSC 1500
Страна исполнителя: USA
Аудиокодек: FLAC (*.flac)
Разрядность: 24 bits / 88,2 kHz
Количество каналов: 2
Тип рипа: tracks
Продолжительность: 44:00
Источник (релизер): HDtracks
Наличие сканов: front

Треклист:
01. Old Riley 05:46
02. Green Corn 02:14
03. Black Girl (Where Did You Sleep Last Night) 03:38
04. Bottle Up and Go 05:07
05. Black Betty 05:25
06. Grey Goose 01:54
07. Bring Me a Little Water, Sylvie 04:23
08. You Can't Lose Me Cholly 02:34
09. Insight, Enlight 02:56
10. Sure Would Baby 05:09
11. Goodnight Irene 04:48

 
Лог проверки качества
foobar2000 1.3.12 / Замер динамического диапазона (DR) 1.1.1
Дата отчёта:  2018-05-29 16:53:38
--------------------------------------------------------------------------------
Анализ:   Adam Nussbaum / The Lead Belly Project
--------------------------------------------------------------------------------
DR         Пики         RMS           Продолжительность трека
--------------------------------------------------------------------------------
DR14      -0.50 дБ   -17.61 дБ      5:46 01-Old Riley
DR13      -2.60 дБ   -19.26 дБ      2:14 02-Green Corn
DR14      -0.50 дБ   -17.66 дБ      3:39 03-Black Girl (Where Did You Sleep Last Night)
DR14      -0.50 дБ   -16.74 дБ      5:07 04-Bottle Up and Go
DR13      -0.50 дБ   -15.64 дБ      5:26 05-Black Betty
DR13      -0.50 дБ   -16.37 дБ      1:54 06-Grey Goose
DR12      -3.46 дБ   -20.20 дБ      4:24 07-Bring Me a Little Water, Sylvie
DR12      -1.23 дБ   -15.93 дБ      2:34 08-You Can't Loose Me Cholly
DR10      -3.06 дБ   -18.65 дБ      2:57 09-Insight, Enlight
DR13      -0.50 дБ   -16.35 дБ      5:09 10-Sure Would Baby
DR14      -0.50 дБ   -18.34 дБ      4:48 11-Goodnight Irene
--------------------------------------------------------------------------------
Количество треков: 11
Реальные значения DR: DR13
Частота:   88200 Гц
Каналов:   2
Разрядность:   24
Битрейт:   2627 кбит/с
Кодек:   FLAC
================================================================================

 

Скачивание доступно после регистрации!!
Приватный:
Нет (DHT включён)
Размер:
838.45 Мб (879,180,327 байт) » файлов: 15
Участники:
0 раздают, 1 качают (1 участников всего)
Внешние участники:
--- [ Обновить ]
Скорость:
5.41 Мб/c 120.13 Кб/c
14:06
70
RSS
Нет комментариев. Ваш будет первым!