Поиск

2018 Michael Wollny Trio - Wartburg Live {ACT Music} [24-96]

2018 Michael Wollny Trio - Wartburg Live {ACT Music} [24-96]
Стили:
Издатель (лейбл):
Состав:
  • Michael Wollny - piano
  • Christian Weber - double bass
  • Eric Schaefer - drums
  • Emile Parisien - soprano saxophone (8-11)

Rec.: live in concert Rittersaal, Wartburg, September 15, 2017.

Формат записи/Источник записи: [TR24][OF]
Наличие водяных знаков: Нет
Год издания/переиздания диска: 2018
Продолжительность: 48:51
Наличие сканов в содержимом раздачи: Буклет PDF
Контейнер: FLAC (*.flac)
Тип рипа: tracks
Разрядность: 24/96
Формат: PCM
Количество каналов: 2.0
Источник: prostudiomasters.com

Треклист:
01. Atavus (3:47)
02. Big Louise (4:10)
03. Perpetuum Mobile (3:09)
04. Synonym (2:47)
05. Interludium (3:33)
06. Antonym (2:26)
07. Gravité (2:06)
08. White Blues (5:55)
09. Tektonik (9:19)
10. Engel (6:27)
11. Make A Wish (5:11)

 
Лог проверки качества
foobar2000 1.3.9 / Dynamic Range Meter 1.1.1
log date: 2018-05-30 12:21:22
--------------------------------------------------------------------------------
Analyzed: Michael Wollny Trio / Wartburg (Live)
--------------------------------------------------------------------------------
DR         Peak         RMS     Duration Track
--------------------------------------------------------------------------------
DR14      -0.66 dB   -19.40 dB      3:47 01-Atavus
DR13      -1.37 dB   -19.30 dB      4:10 02-Big Louise
DR11      -0.66 dB   -13.24 dB      3:09 03-Perpetuum Mobile
DR12      -0.66 dB   -14.97 dB      2:47 04-Synonym
DR10      -0.66 dB   -13.85 dB      3:33 05-Interludium
DR13      -0.95 dB   -20.03 dB      2:26 06-Antonym
DR9       -0.66 dB   -13.75 dB      2:06 07-Gravité
DR13      -0.66 dB   -18.52 dB      5:55 08-White Blues
DR10      -0.66 dB   -13.63 dB      9:19 09-Tektonik
DR10      -0.66 dB   -14.78 dB      6:27 10-Engel
DR13      -0.73 dB   -19.82 dB      5:11 11-Make A Wish
--------------------------------------------------------------------------------
Number of tracks:  11
Official DR value: DR12
Samplerate:        96000 Hz
Channels:          2
Bits per sample:   24
Bitrate:           2596 kbps
Codec:             FLAC
================================================================================

 

Скачивание доступно после регистрации!!
Приватный:
Нет (DHT включён)
Размер:
960.19 Мб (1,006,829,280 байт) » файлов: 16
Участники:
1 раздают, 0 качают (1 участников всего)
Внешние участники:
--- [ Обновить ]
Скорость:
0/c 43.00 Кб/c
13:00
69
RSS
Нет комментариев. Ваш будет первым!