Поиск

2018 Sophie Alour - Time For Love {Music From Source} [24-96]

2018 Sophie Alour - Time For Love {Music From Source} [24-96]
Стили:

Формат записи/Источник записи: [TR24][OF]
Наличие водяных знаков: Нет
Год издания/переиздания диска: 2 февраля 2018
Издатель (лейбл): Music From Source
Продолжительность: 00:47:49
Наличие сканов в содержимом раздачи: Front
Источник (релизер): 7digital
Контейнер: FLAC (*.flac)
Тип рипа: tracks
Разрядность: 24/96
Формат: PCM
Количество каналов: 2.0

Треклист:
01. Nos cendres
02. I Loves You, Porgy
03. The Second Time Around
04. Left Alone
05. Skylark
06. Ev'ry Time We Say Goodbye
07. Stars Fell on Alabama
08. Answer Me
09. I'm Old Fashioned
10. A Time for Love
11. Comptine

 
Лог проверки качества
foobar2000 1.1.10 / Dynamic Range Meter 1.1.1
log date: 2018-02-02 16:18:28
--------------------------------------------------------------------------------
Analyzed: Sophie Alour / Time For Love
--------------------------------------------------------------------------------
DR         Peak         RMS     Duration Track
--------------------------------------------------------------------------------
DR7       -0.10 dB    -9.84 dB      3:26 ?-Nos cendres
DR7       -0.10 dB   -10.50 dB      5:31 ?-I Loves You, Porgy
DR6       -0.10 dB    -8.71 dB      4:21 ?-The Second Time Around
DR8       -0.10 dB   -10.48 dB      4:50 ?-Left Alone
DR9       -0.10 dB   -11.90 dB      4:40 ?-Skylark
DR7       -0.10 dB   -10.34 dB      5:00 ?-Ev'ry Time We Say Goodbye
DR8       -0.10 dB   -10.16 dB      3:55 ?-Stars Fell on Alabama
DR8       -0.10 dB   -10.45 dB      4:34 ?-Answer Me
DR9       -0.10 dB   -12.12 dB      3:58 ?-I'm Old Fashioned
DR7       -0.10 dB   -10.29 dB      3:39 ?-A Time for Love
DR10      -0.10 dB   -14.53 dB      3:55 ?-Comptine
--------------------------------------------------------------------------------
Number of tracks:  11
Official DR value: DR8
Samplerate:        96000 Hz
Channels:          2
Bits per sample:   24
Bitrate:           2510 kbps
Codec:             FLAC
================================================================================

 

Скачивание доступно после регистрации!!
Приватный:
Нет (DHT включён)
Размер:
981.49 Мб (1,029,164,713 байт) » файлов: 13
Участники:
3 раздают, 0 качают (3 участников всего)
Внешние участники:
--- [ Обновить ]
15:34
58
RSS
Нет комментариев. Ваш будет первым!