Поиск

2018 Jamison Ross - All For One {Concord} [24-96]

2018 Jamison Ross - All For One {Concord} [24-96]
Издатель (лейбл):

Состав:
  • Chris Dunn Producer
  • Sullivan Fortner Arranger
  • Cory Irvin Fender Rhodes, Hammond B3, Vocals (Background), Wurlitzer
  • Rick Lollar Guitar, Vocals (Background)
  • Chris Pattishall Arranger, Piano
  • Jamison Ross Arranger, Composer, Drums, Liner Notes, Producer, Vocals
  • Barry Stephenson Bass

Формат записи/Источник записи: [TR24][OF]
Наличие водяных знаков: Нет
Дата издания/переиздания диска: 26 января 2018
Место записи:

  • The Parlor, New Orleans, LA
  • The Village Studios, Los Angeles, CA

Продолжительность: 46:26
Наличие сканов в содержимом раздачи: Буклет PDF
Контейнер: FLAC (*.flac)
Тип рипа: tracks
Разрядность: 24/96
Формат: PCM
Количество каналов: 2.0
Источник: 7digital.com

Треклист:
01. A Mellow Good Time (4:19)
02. Unspoken (3:32)
03. Don't Go To Strangers (5:21)
04. Away (3:16)
05. Everybody's Cryin' Mercy (3:34)
06. Safe In The Arms Of Love (4:12)
07. Tears And Questions (2:22)
08. Keep On (2:56)
09. All For One (4:38)
10. Call Me (4:06)
11. True Love Interlude (0:32)
12. My Ship (4:43)
13. Let's Sing Again (2:55)

 
Лог проверки качества
foobar2000 1.3.9 / Dynamic Range Meter 1.1.1
log date: 2018-01-26 15:40:33
--------------------------------------------------------------------------------
Analyzed: Jamison Ross / All For One
--------------------------------------------------------------------------------
DR         Peak         RMS     Duration Track
--------------------------------------------------------------------------------
DR8       -0.05 dB   -11.19 dB      4:19 01-A Mellow Good Time
DR9       -0.05 dB   -11.96 dB      3:32 02-Unspoken
DR12      -0.43 dB   -16.44 dB      5:21 03-Don't Go To Strangers
DR10      -0.02 dB   -13.85 dB      3:16 04-Away
DR11      -0.05 dB   -12.85 dB      3:34 05-Everybody's Cryin' Mercy
DR10      -0.05 dB   -12.33 dB      4:12 06-Safe In The Arms Of Love
DR9       -0.05 dB   -13.63 dB      2:22 07-Tears And Questions
DR10      -0.05 dB   -13.01 dB      2:56 08-Keep On
DR11      -0.05 dB   -13.40 dB      4:38 09-All For One
DR8       -0.02 dB   -12.15 dB      4:06 10-Call Me
DR10      -3.94 dB   -17.17 dB      0:32 11-True Love Interlude
DR11      -0.05 dB   -15.53 dB      4:43 12-My Ship
DR12      -2.54 dB   -18.96 dB      2:55 13-Let's Sing Again
--------------------------------------------------------------------------------
Number of tracks:  13
Official DR value: DR10
Samplerate:        96000 Hz
Channels:          2
Bits per sample:   24
Bitrate:           2334 kbps
Codec:             FLAC
================================================================================

 

Скачивание доступно после регистрации!!
Приватный:
Нет (DHT включён)
Размер:
968.29 Мб (1,015,329,792 байт) » файлов: 17
Участники:
9 раздают, 0 качают (9 участников всего)
Внешние участники:
--- [ Обновить ]
13:48
89
RSS
Нет комментариев. Ваш будет первым!