Поиск

2018 Chris Dave And The Drumhedz - Chris Dave And The Drumhedz {Blue Note} [24-88,2]

2018 Chris Dave And The Drumhedz - Chris Dave And The Drumhedz {Blue Note} [24-88,2]
Издатель (лейбл):

Состав:
  • Luke Austin Organ, Piano
  • Casey Benjamin, Charmelle Cofield, Leolin Dockins III, Darryl Farris, Shafiq Husayn Composer, Vocals
  • Rozzi Daime Spoken Word, Vocals
  • Chris Dave Composer, Drums, Flute, Percussion, Producer, Sound Effects, Vocals
  • Aaron Draper Percussion
  • Michael Feingold Bell, Celeste, Composer, Glass, Sitar
  • Miguel Ferguson Strings
  • Robert Glasper Composer, Fender Rhodes, Piano
  • Fin Greenall, Isaiah Sharkey Composer, Guitar
  • Andre Harris Composer, Keyboards
  • Keyon Harrold Composer, Horn, Piano, Trumpet, Vocals (Background)
  • Marcus Hodge Organ
  • Grégoire Maret Harmonica
  • Nicholas McNack, Nick Mcnack Bass
  • Pino Palladino Bass, Composer, Vocals
  • James Poyser Composer, Keyboards, Piano
  • Cleo Sample Composer, Fender Rhodes, Keyboards, Moog Bass, Organ, Piano
  • Sy Smith, Donald Rose Composer, Vocals
  • Tim Stewart, Stokley Williams Composer, Guitar
  • Marcus Strickland Bass, Clarinet, Clarinet (Bass), Sax (Tenor)
  • Melvin Watson Guitar, Sitar
  • Kebbi Williams Composer, Flute, Saxophone
  • R.C. Williams Moog Bass
  • Marshall York, Goapele, Tiffany Gouché, Sharief Hobley, Kent Morrison, Ali Shaheed Muhammad, Jermaine Holmes, Marvin "Krndn" Jones, Rozzi Vocals

Формат записи/Источник записи: [TR24][OF]
Наличие водяных знаков: Нет
Год издания/переиздания диска: 26 января 2018
Место записи: Kingsize Soundlabs, Los Angeles, CA
Продолжительность: 00:58:53
Наличие сканов в содержимом раздачи: Front
Источник (релизер): qobuz
Контейнер: FLAC (*.flac)
Тип рипа: tracks
Разрядность: 24/88,2
Формат: PCM
Количество каналов: 2.0

Треклист:
01. Rocks Crying
02. Universal Language
03. Dat Feelin' (feat. SiR)
04. Black Hole (feat. Anderson .Paak)
05. 2n1
06. Spread Her Wings (feat. Bilal & Tweet)
07. Whatever
08. Sensitive Granite (feat. Kendra Foster)
09. Cosmic Intercourse (feat. Stokley Williams)
10. Atlanta, Texas (feat. Goapele & Shafiq Husayn)
11. Destiny N Stereo (feat. Elzhi & Phonte Coleman & Eric Roberson)
12. Clear View (feat. Anderson .Paak & SiR)
13. Job Well Done (feat. Anna Wise & SiR)
14. Lady Jane
15. Trippy Tipsy

 
Лог проверки качества
foobar2000 1.3.7 / Dynamic Range Meter 1.1.1
log date: 2018-01-25 16:28:20
--------------------------------------------------------------------------------
Analyzed: Chris Dave And The Drumhedz / Chris Dave And The Drumhedz
--------------------------------------------------------------------------------
DR         Peak         RMS     Duration Track
--------------------------------------------------------------------------------
DR8       -1.01 dB   -12.22 dB      2:21 01-Rocks Crying
DR11       0.00 dB   -12.93 dB      3:40 02-Universal Language
DR11       0.00 dB   -12.75 dB      3:39 03-Dat Feelin' feat SiR
DR9       -0.90 dB   -11.32 dB      4:34 04-Black Hole feat Anderson Paak
DR12      -0.90 dB   -18.32 dB      1:02 05-2n1
DR7        0.00 dB    -9.90 dB      5:23 06-Spread Her Wings feat Bilal & Tweet
DR12       0.00 dB   -13.27 dB      2:17 07-Whatever
DR11       0.00 dB   -13.46 dB      3:42 08-Sensitive Granite feat Kendra Foster
DR9        0.00 dB   -12.29 dB      5:44 09-Cosmic Intercourse feat Stokley Williams
DR10       0.00 dB   -12.24 dB      3:45 10-Atlanta, Texas feat Goapele & Shafiq Husayn
DR10       0.00 dB   -11.92 dB      3:49 11-Destiny N Stereo feat Elzhi & Phonte Coleman & Eric Roberson
DR9        0.00 dB   -11.27 dB      6:27 12-Clear View feat Anderson Paak & SiR
DR11       0.00 dB   -13.18 dB      4:37 13-Job Well Done feat Anna Wise & SiR
DR12       0.00 dB   -17.99 dB      5:39 14-Lady Jane
DR10       0.00 dB   -12.97 dB      2:26 15-Trippy Tipsy
--------------------------------------------------------------------------------
Number of tracks:  15
Official DR value: DR10
Samplerate:        88200 Hz
Channels:          2
Bits per sample:   24
Bitrate:           2688 kbps
Codec:             FLAC
================================================================================

 

Скачивание доступно после регистрации!!
Приватный:
Нет (DHT включён)
Размер:
1.12 Гб (1,200,000,033 байт) » файлов: 17
Участники:
1 раздают, 0 качают (1 участников всего)
Внешние участники:
--- [ Обновить ]
11:42
77
RSS
Нет комментариев. Ваш будет первым!