Поиск

2018 Manu Guerrero - Nuevo Mundo {jazz family} [24-44,1]

2018 Manu Guerrero - Nuevo Mundo {jazz family} [24-44,1]
Состав:
  • Manu Guerrero — piano, compositions
  • Samy Thiebault — saxophone
  • Minino Garay — percussions
  • Felipe Cabrera — bass
  • Lukmil Perez — drums

Формат записи/Источник записи: [TR24][OF]
Наличие водяных знаков: Нет
Год издания/переиздания диска: 19 января 2018
Жанр: Jazz
Издатель (лейбл): jazz family
Продолжительность: 58:08
Наличие сканов в содержимом раздачи: Front
Источник (релизер): 7digital
Контейнер: FLAC (*.flac)
Тип рипа: tracks
Разрядность: 24/44,1
Формат: PCM
Количество каналов: 2.0

Треклист:
01. Belleville la nuit
02. Boayan
03. Treinta de Marzo
04. Fresia
05. Amélie's Monkey Dance
06. La Flor de la Canela
07. Lament for Freedom
08. A Human Story
09. Nuevo Mundo
10. Fresia

 
DR Log
foobar2000 1.3.7 / Dynamic Range Meter 1.1.1
log date: 2018-01-31 19:41:08
--------------------------------------------------------------------------------
Analyzed: Manu Guerrero / Nuevo Mundo
--------------------------------------------------------------------------------
DR         Peak         RMS     Duration Track
--------------------------------------------------------------------------------
DR9        0.00 dB   -10.92 dB      5:03 01-Belleville la nuit
DR10       0.00 dB   -12.04 dB      6:33 02-Boayan
DR10       0.00 dB   -12.56 dB      3:48 03-Treinta de Marzo
DR10       0.00 dB   -13.23 dB      4:52 04-Fresia
DR10       0.00 dB   -11.89 dB      4:51 05-Amelie's Monkey Dance
DR8        0.00 dB   -12.54 dB      5:52 06-La Flor de la Canela
DR10      -0.25 dB   -13.33 dB      8:40 07-Lament for Freedom
DR10       0.00 dB   -12.31 dB      8:26 08-A Human Story
DR9        0.00 dB   -11.55 dB      5:17 09-Nuevo Mundo
DR11       0.00 dB   -13.08 dB      4:48 10-Fresia
--------------------------------------------------------------------------------
Number of tracks:  10
Official DR value: DR10
Samplerate:        44100 Hz
Channels:          2
Bits per sample:   24
Bitrate:           1515 kbps
Codec:             FLAC
================================================================================

 

Приватный:
Нет (DHT включён)
Размер:
668.23 Мб (700,693,409 байт) » файлов: 12
Участники:
5 раздают, 0 качают (5 участников всего)
Внешние участники:
--- [ Обновить ]
16:11
51
RSS
Нет комментариев. Ваш будет первым!