Поиск

2018 Thomas Stronen & Time Is A Blind Guide - Lucus {ECM} [24-96]

2018 Thomas Stronen & Time Is A Blind Guide - Lucus {ECM} [24-96]
Стили:
Издатель (лейбл):

Состав:
  • Thomas Strønen — Drums
  • Ayumi Tanaka — Piano
  • Håkon Aase — Violin
  • Lucy Railton — Violoncello
  • Ole Morten Vågan — Double Bass

Формат записи/Источник записи: [TR24][OF]
Наличие водяных знаков: Нет
Год издания/переиздания диска: 2018
Продолжительность: 00:52:18
Контейнер: FLAC (*.flac)
Тип рипа: tracks
Разрядность: 24/96
Формат: PCM
Количество каналов: 2.0
Наличие сканов в содержимом раздачи: Буклет PDF
Источник (релизер): 7digital

Треклист:
01. La Bella
02. Friday
03. Release
04. Lucus
05. Fugitive Places
06. Baka
07. Wednesday
08. Tension
09. Truth Grows Gradually
10. Islay
11. Weekend

Когда встречаются Норвежское и Японское море.... Записано в фантастически-знаменитом, своей акустической отдачей, зале Auditorio Stelio Molo, Лугано, Швейцария, в марте 2017.

 
Лог проверки качества
Общее
Полное имя                               : /Users/user/Movies/Thomas Stronen & Time Is A Blind Guide - Lucus (2018) [hires]/02 - Friday.flac
Формат                                   : FLAC
Формат/Информация                        : Free Lossless Audio Codec
Размер файла                             : 78,3 Мбайт
Продолжительность                        : 4 м. 5 с.
Режим общего битрейта                    : Переменный
Общий поток                              : 2673 Кбит/сек
Альбом                                   : Lucus
Альбом/Исполнитель                       : Thomas Strønen & Time Is A Blind Guide
Часть                                    : 1
Трек                                     : Friday
Трек/Положение                           : 02
Исполнитель                              : Thomas Strønen & Time Is A Blind Guide
Жанр                                     : Jazz
Дата записи                              : 2018
Авторское право                          : © © 2018 ECM Records GmbH / ℗ 2018 ECM Records GmbH
Обложка                                  : Yes
Тип обложки                              : Cover (front)
MIME-тип обложки                         : image/jpeg
ALBUM DYNAMIC RANGE                      : 13
DYNAMIC RANGE                            : 13
TOTALDISC                                : 1
Аудио
Формат                                   : FLAC
Формат/Информация                        : Free Lossless Audio Codec
Продолжительность                        : 4 м. 5 с.
Вид битрейта                             : Переменный
Битрейт                                  : 2657 Кбит/сек
Каналы                                   : 2 канала
Расположение каналов                     : Front: L R
Частота                                  : 96,0 КГц
Битовая глубина                          : 24 бит
Размер потока                            : 77,9 Мбайт (99%)
Библиотека кодирования                   : libFLAC 1.3.1 (UTC 2014-11-25)
Общее
Полное имя                               : /Users/user/Movies/Thomas Stronen & Time Is A Blind Guide - Lucus (2018) [hires]/04 - Lucus.flac
Формат                                   : FLAC
Формат/Информация                        : Free Lossless Audio Codec
Размер файла                             : 71,7 Мбайт
Продолжительность                        : 3 м. 47 с.
Режим общего битрейта                    : Переменный
Общий поток                              : 2647 Кбит/сек
Альбом                                   : Lucus
Альбом/Исполнитель                       : Thomas Strønen & Time Is A Blind Guide
Часть                                    : 1
Трек                                     : Lucus
Трек/Положение                           : 04
Исполнитель                              : Thomas Strønen & Time Is A Blind Guide
Жанр                                     : Jazz
Дата записи                              : 2018
Авторское право                          : © © 2018 ECM Records GmbH / ℗ 2018 ECM Records GmbH
Обложка                                  : Yes
Тип обложки                              : Cover (front)
MIME-тип обложки                         : image/jpeg
ALBUM DYNAMIC RANGE                      : 13
DYNAMIC RANGE                            : 12
TOTALDISC                                : 1
Аудио
Формат                                   : FLAC
Формат/Информация                        : Free Lossless Audio Codec
Продолжительность                        : 3 м. 47 с.
Вид битрейта                             : Переменный
Битрейт                                  : 2630 Кбит/сек
Каналы                                   : 2 канала
Расположение каналов                     : Front: L R
Частота                                  : 96,0 КГц
Битовая глубина                          : 24 бит
Размер потока                            : 71,2 Мбайт (99%)
Библиотека кодирования                   : libFLAC 1.3.1 (UTC 2014-11-25)
 
Скриншот спектра частот

 

Скачивание доступно после регистрации!!
Приватный:
Нет (DHT включён)
Размер:
958.70 Мб (1,005,266,472 байт) » файлов: 13
Участники:
2 раздают, 1 качают (3 участников всего)
Внешние участники:
--- [ Обновить ]
16:23
85
RSS
Нет комментариев. Ваш будет первым!