Поиск

2018 Simone Kopmajer - Daydreaming {Lucky Mojo} [24-192]

2018 Simone Kopmajer - Daydreaming {Lucky Mojo} [24-192]
Стили:

Состав:
  • Simone Kopmajer - vocals, piano
  • Gottfried Gfrerer - guitar
  • Beate Wiesinger - bass
  • Reinhardt Winkler - drums

Формат записи/Источник записи: [TR24][OF]
Наличие водяных знаков: Нет
Издание: EP
Год издания/переиздания диска: 2017/2018
Издатель (лейбл): Lucky Mojo Records
Продолжительность: 25:23
Наличие сканов в содержимом раздачи: Только обложка альбома
Контейнер: FLAC (*.flac)
Тип рипа: tracks
Разрядность: 24/192
Формат: PCM
Количество каналов: 2.0
Источник: hdtracks.com

Треклист:
01. If We Never Met Again (3:31)
02. Crazy Moon (4:05)
03. Day Dreaming (3:35)
04. Cat Song (4:05)
05. Time And Time Again (3:56)
06. Travelling To You (2:41)
07. You Can Kiss Me (3:31)

 
Лог проверки качества
foobar2000 1.3.9 / Dynamic Range Meter 1.1.1
log date: 2018-05-04 21:32:05
--------------------------------------------------------------------------------
Analyzed: Simone Kopmajer / Daydreaming
--------------------------------------------------------------------------------
DR         Peak         RMS     Duration Track
--------------------------------------------------------------------------------
DR12      -3.05 dB   -18.98 dB      3:31 01-If We Never Met Again
DR15      -0.68 dB   -20.71 dB      4:05 02-Crazy Moon
DR15      -1.28 dB   -21.04 dB      3:35 03-Day Dreaming
DR16      -1.53 dB   -23.38 dB      4:05 04-Cat Song
DR18      -1.02 dB   -23.07 dB      3:56 05-Time And Time Again
DR13      -7.04 dB   -25.07 dB      2:41 06-Travelling To You
DR15      -4.11 dB   -24.71 dB      3:31 07-You Can Kiss Me
--------------------------------------------------------------------------------
Number of tracks:  7
Official DR value: DR15
Samplerate:        192000 Hz
Channels:          2
Bits per sample:   24
Bitrate:           5615 kbps
Codec:             FLAC
================================================================================

 

Приватный:
Нет (DHT включён)
Размер:
1.02 Гб (1,098,770,812 байт) » файлов: 11
Участники:
1 раздают, 0 качают (1 участников всего)
Внешние участники:
--- [ Обновить ]
16:37
51
RSS
Нет комментариев. Ваш будет первым!