Поиск

2017 Simone Kopmajer - Good Old Times {Lucky Mojo} [24-176,4]

2017 Simone Kopmajer - Good Old Times {Lucky Mojo} [24-176,4]
Стили:

Состав:
  • Simone Kopmajer - vocals
  • Jean-Paul Bourelly - guitar
  • Jamaaladeen Tacuma - bass
  • Paul Urbanek - piano, keyboards
  • Reinhardt Winkler - drums
  • Margarethe Deppe - cello

Формат записи/Источник записи: [TR24][OF]
Наличие водяных знаков: Нет
Год издания/переиздания диска: 2017
Издатель (лейбл): Lucky Mojo Records
Продолжительность: 46:25
Наличие сканов в содержимом раздачи: Только обложка альбома
Контейнер: FLAC (*.flac)
Тип рипа: tracks
Разрядность: 24/176,4
Формат: PCM
Количество каналов: 2.0
Источник: hdtracks.com

Треклист:
01. Till There Was You (3:54)
02. Lost In Love (4:17)
03. Reality (4:34)
04. Heart Of Gold (3:06)
05. That's Why (You Go Away) (3:20)
06. First Of May (4:24)
07. You're My Everything (5:35)
08. Have I Told You Lately (3:34)
09. Have You Ever Seen The Rain (5:05)
10. Lost Stars (4:18)
11. The Morning Sun (4:20)

 
Лог проверки качества
foobar2000 1.3.9 / Dynamic Range Meter 1.1.1
log date: 2018-05-04 22:42:06
--------------------------------------------------------------------------------
Analyzed: Simone Kopmajer / Good Old Times
--------------------------------------------------------------------------------
DR         Peak         RMS     Duration Track
--------------------------------------------------------------------------------
DR6       -0.10 dB    -7.33 dB      3:54 01-Till There Was You
DR6       -0.10 dB    -7.10 dB      4:17 02-Lost In Love
DR8       -0.10 dB   -10.08 dB      4:34 03-Reality
DR6       -0.10 dB    -8.07 dB      3:06 04-Heart Of Gold
DR6       -0.10 dB    -8.45 dB      3:20 05-That's Why (You Go Away)
DR7       -0.10 dB    -8.51 dB      4:24 06-First Of May
DR6       -0.10 dB    -8.19 dB      5:35 07-You're My Everything
DR7       -0.10 dB    -8.92 dB      3:34 08-Have I Told You Lately
DR8       -0.10 dB    -9.32 dB      5:05 09-Have You Ever Seen The Rain
DR8       -0.10 dB    -9.17 dB      4:18 10-Lost Stars
DR7        0.00 dB    -9.14 dB      4:20 11-The Morning Sun
--------------------------------------------------------------------------------
Number of tracks:  11
Official DR value: DR7
Samplerate:        176400 Hz
Channels:          2
Bits per sample:   24
Bitrate:           2905 kbps
Codec:             FLAC
================================================================================

 

Приватный:
Нет (DHT включён)
Размер:
1.58 Гб (1,699,760,832 байт) » файлов: 15
Участники:
0 раздают, 0 качают (0 участников всего)
Внешние участники:
--- [ Обновить ]
Скорость:
0/c 1.39 Кб/c
16:57
65
RSS
Нет комментариев. Ваш будет первым!