Поиск

2018 David Friedman Generations Trio - Thursday {Malletmuse} [24-44,1]

2018 David Friedman Generations Trio - Thursday {Malletmuse} [24-44,1]
Стили:

Состав:
  • David Friedman - vibes
  • Oliver Potratz - bass
  • Tilo Weber - drums

Формат записи/Источник записи: [TR24][OF]
Наличие водяных знаков: Нет
Год издания/переиздания диска: 2018
Издатель (лейбл): Malletmuse Records
Продолжительность: 55:08
Контейнер: FLAC (*.flac)
Тип рипа: tracks
Разрядность: 24/44,1
Формат: PCM
Количество каналов: 2.0
Наличие сканов в содержимом раздачи: Только обложка альбома
Источник: qobuz.com

Треклист:
01. Bistro (4:36)
02. Deer Fall (5:02)
03. Recycling (7:42)
04. Thursday Lines (6:35)
05. Thursday Session (8:35)
06. Turn Left (8:43)
07. In Hop (2:37)
08. Small Talk (2:02)
09. Gliding (3:41)
10. Sogni D'oro (5:34)

Recorded in September 2014 by Falko Duczmal at Scoring Stage Babelsberg.

 
Лог проверки качества
foobar2000 1.3.9 / Dynamic Range Meter 1.1.1
log date: 2018-05-04 09:37:46
--------------------------------------------------------------------------------
Analyzed: David Friedman Generations Trio / Thursday
--------------------------------------------------------------------------------
DR         Peak         RMS     Duration Track
--------------------------------------------------------------------------------
DR10      -0.70 dB   -13.39 dB      4:36 01-Bistro
DR10      -0.70 dB   -13.04 dB      5:02 02-Deer Fall
DR10      -0.70 dB   -14.75 dB      7:42 03-Recycling
DR9       -0.70 dB   -12.10 dB      6:35 04-Thursday Lines
DR9       -0.70 dB   -13.33 dB      8:35 05-Thursday Session
DR11      -0.70 dB   -15.27 dB      8:43 06-Turn Left
DR10      -0.70 dB   -13.07 dB      2:37 07-In Hop
DR12      -0.70 dB   -17.44 dB      2:02 08-Small Talk
DR12      -0.70 dB   -19.95 dB      3:41 09-Gliding
DR9       -0.70 dB   -13.29 dB      5:34 10-Sogni D'oro
--------------------------------------------------------------------------------
Number of tracks:  10
Official DR value: DR10
Samplerate:        44100 Hz
Channels:          2
Bits per sample:   24
Bitrate:           1541 kbps
Codec:             FLAC
================================================================================

 

Скачивание доступно после регистрации!!
Приватный:
Нет (DHT включён)
Размер:
605.31 Мб (634,715,802 байт) » файлов: 13
Участники:
5 раздают, 0 качают (5 участников всего)
Внешние участники:
--- [ Обновить ]
16:38
73
RSS
Нет комментариев. Ваш будет первым!