Поиск

2018 Pat Peronne - Emerald Sway {P&P} [24-44,1]

2018 Pat Peronne - Emerald Sway {P&P} [24-44,1]
Стили:
Издатель (лейбл):
Треклист:

Формат записи/Источник записи: [TR24][OF]
Наличие водяных знаков: Нет
Год издания/переиздания диска: 2018
Продолжительность: 47:55
Наличие сканов в содержимом раздачи: Только обложка альбома
Источник: WRZmusic
Контейнер: FLAC (*.flac)
Тип рипа: tracks
Разрядность: 24/44,1
Формат: PCM
Количество каналов: 2.0
Магазин: qobuz.com

Треклист:
01. Legend (6:14)
02. Emerald Sway (5:23)
03. Night Storm (4:56)
04. Improvised Days (5:34)
05. Left Breath (5:44)
06. Near And Far Away II (6:40)
07. Projection (6:52)
08. Red Moon (6:33)

 
Лог проверки качества
foobar2000 1.3.9 / Dynamic Range Meter 1.1.1
log date: 2018-06-13 16:54:56
--------------------------------------------------------------------------------
Analyzed: Pat Péronne / Emerald Sway
--------------------------------------------------------------------------------
DR         Peak         RMS     Duration Track
--------------------------------------------------------------------------------
DR11       0.00 dB   -14.36 dB      6:14 01-Legend
DR10       0.00 dB   -12.52 dB      5:23 02-Emerald Sway
DR13       0.00 dB   -17.68 dB      4:56 03-Night Storm
DR14       0.00 dB   -17.78 dB      5:34 04-Improvised Days
DR14       0.00 dB   -17.73 dB      5:44 05-Left Breath
DR13       0.00 dB   -17.14 dB      6:40 06-Near And Far Away II
DR13      -0.01 dB   -18.14 dB      6:52 07-Projection
DR9        0.00 dB   -12.52 dB      6:33 08-Red Moon
--------------------------------------------------------------------------------
Number of tracks:  8
Official DR value: DR12
Samplerate:        44100 Hz
Channels:          2
Bits per sample:   24
Bitrate:           1194 kbps
Codec:             FLAC
================================================================================

 

Приватный:
Нет (DHT включён)
Размер:
393.33 Мб (412,434,026 байт) » файлов: 11
Участники:
8 раздают, 0 качают (8 участников всего)
Внешние участники:
1 раздают, 0 качают (1 участников всего) [ Обновить ]
Есть вопросы - пишите личное сообщение пользователю M0p94ok.
10:06
125
Нет комментариев. Ваш будет первым!