Поиск

2018 Pat Peronne - A Time In Mind {P&P} [24-44,1]

2018 Pat Peronne - A Time In Mind {P&P} [24-44,1]
Стили:
Издатель (лейбл):
Треклист:

Формат записи/Источник записи: [TR24][OF]
Наличие водяных знаков: Нет
Год издания/переиздания диска: 2018
Продолжительность: 78:14
Наличие сканов в содержимом раздачи: Только обложка альбома
Источник: WRZmusic
Контейнер: FLAC (*.flac)
Тип рипа: tracks
Разрядность: 24/44,1
Формат: PCM
Количество каналов: 2.0
Магазин: qobuz.com

Треклист:
01. High Fingers (9:28)
02. The Strength Of Silence (10:14)
03. Powerful Waves (8:53)
04. Night Walk (21:43)
05. A Time In Mind (7:36)
06. Near And Far Away (5:52)
07. Night's Sand (6:33)
08. Enigmatic Ways (7:54)

 
Лог проверки качества
foobar2000 1.3.9 / Dynamic Range Meter 1.1.1
log date: 2018-06-13 16:46:34
--------------------------------------------------------------------------------
Analyzed: Pat Péronne / A Time In Mind
--------------------------------------------------------------------------------
DR         Peak         RMS     Duration Track
--------------------------------------------------------------------------------
DR12       0.00 dB   -17.38 dB      9:28 01-High Fingers
DR12       0.00 dB   -18.19 dB     10:14 02-The Strength Of Silence
DR13       0.00 dB   -16.77 dB      8:53 03-Powerful Waves
DR12      -0.21 dB   -17.04 dB     21:43 04-Night Walk
DR10       0.00 dB   -13.36 dB      7:36 05-A Time In Mind
DR11       0.00 dB   -16.58 dB      5:52 06-Near And Far Away
DR11       0.00 dB   -15.36 dB      6:33 07-Night's Sand
DR13       0.00 dB   -17.23 dB      7:54 08-Enigmatic Ways
--------------------------------------------------------------------------------
Number of tracks:  8
Official DR value: DR12
Samplerate:        44100 Hz
Channels:          2
Bits per sample:   24
Bitrate:           1108 kbps
Codec:             FLAC
================================================================================

 

Приватный:
Нет (DHT включён)
Размер:
628.18 Мб (658,694,684 байт) » файлов: 11
Участники:
8 раздают, 0 качают (8 участников всего)
Внешние участники:
1 раздают, 0 качают (1 участников всего) [ Обновить ]
Есть вопросы - пишите личное сообщение пользователю M0p94ok.
10:11
116
Нет комментариев. Ваш будет первым!