Вы используете незарегистрированную версию компонента "Вкладки"!

Поиск

1959-1993 Ornette Coleman - The Atlantic Years (2018) {Rhino Atlantic} [24-192]

1959-1993 Ornette Coleman - The Atlantic Years (2018) {Rhino Atlantic} [24-192]
Стили:
Издатель (лейбл):

Треклист:

Формат записи/Источник записи: [TR24][OF]
Наличие водяных знаков: Нет
Издание: Remastered
Год издания/переиздания диска: 2018
Жанр: Free Jazz
Издатель (лейбл): Rhino Atlantic
Продолжительность: 06:36:46
Наличие сканов в содержимом раздачи: Только обложка альбома
Контейнер: FLAC (*.flac)
Тип рипа: tracks
Разрядность: 24/192
Формат: PCM
Количество каналов: 2.0
Источник: acousticsounds.com

 
Disc 1 • The Shape Of Jazz To Come (1959)

Продолжительность : 38:16
Треклист :
01. Lonely Woman (5:01)
02. Eventually (4:23)
03. Peace (9:05)
04. Focus On Sanity (6:53)
05. Congeniality (6:49)
06. Chronology (6:04)
Musicians :
Ornette Coleman - alto saxophone
Don Cherry - cornet
Charlie Haden - bass
Billy Higgins - drums
Recorded on May 22, 1959.

 
Лог проверки качества
foobar2000 1.3.9 / Dynamic Range Meter 1.1.1
log date: 2018-06-12 12:14:22
--------------------------------------------------------------------------------
Analyzed: Ornette Coleman / The Shape Of Jazz To Come
--------------------------------------------------------------------------------
DR         Peak         RMS     Duration Track
--------------------------------------------------------------------------------
DR13      -1.00 dB   -19.22 dB      5:01 01-Lonely Woman
DR13      -1.00 dB   -18.13 dB      4:23 02-Eventually
DR14      -2.10 dB   -22.27 dB      9:05 03-Peace
DR16      -1.00 dB   -22.24 dB      6:53 04-Focus On Sanity
DR14      -1.46 dB   -19.17 dB      6:49 05-Congeniality
DR14      -1.00 dB   -19.62 dB      6:04 06-Chronology
--------------------------------------------------------------------------------
Number of tracks:  6
Official DR value: DR14
Samplerate:        192000 Hz
Channels:          2
Bits per sample:   24
Bitrate:           5024 kbps
Codec:             FLAC
================================================================================
 
Disc 2 • Change Of The Century (1959)

Продолжительность : 41:26
Треклист :
01. Ramblin' (6:38)
02. Free (6:22)
03. The Face Of The Bass (6:56)
04. Forerunner (5:16)
05. Bird Food (5:32)
06. Una Muy Bonita (6:02)
07. Change Of The Century (4:40)
Musicians :
Ornette Coleman - alto saxophone
Don Cherry - pocket trumpet
Charlie Haden - bass
Billy Higgins - drums
Recorded on October 8 & 9, 1959.

 
Лог проверки качества
foobar2000 1.3.9 / Dynamic Range Meter 1.1.1
log date: 2018-06-12 12:14:56

--------------------------------------------------------------------------------
Analyzed: Ornette Coleman / Change Of The Century
--------------------------------------------------------------------------------

DR         Peak         RMS     Duration Track
--------------------------------------------------------------------------------
DR13      -1.02 dB   -16.75 dB      6:38 01-Ramblin'
DR13      -1.00 dB   -18.33 dB      6:22 02-Free
DR14      -1.74 dB   -20.37 dB      6:56 03-The Face Of The Bass
DR13      -1.00 dB   -17.98 dB      5:16 04-Forerunner
DR14      -1.00 dB   -18.33 dB      5:32 05-Bird Food
DR14      -2.19 dB   -19.16 dB      6:02 06-Una Muy Bonita
DR14      -1.00 dB   -18.62 dB      4:40 07-Change Of The Century
--------------------------------------------------------------------------------

Number of tracks:  7
Official DR value: DR13

Samplerate:        192000 Hz
Channels:          2
Bits per sample:   24
Bitrate:           5050 kbps
Codec:             FLAC
================================================================================
 
Disc 3 • This Is Our Music (1960)

Продолжительность : 39:04
Треклист :
01. Blues Connotation (5:20)
02. Beauty Is A Rare Thing (7:16)
03. Kaleidoscope (6:36)
04. Embraceable You (4:59)
05. Poise (4:42)
06. Humpty Dumpty (5:24)
07. Folk Tale (4:47)
Musicians :
Ornette Coleman - alto saxophone
Don Cherry - pocket trumpet
Charlie Haden - bass
Ed Blackwell - drums
Recorded on July 19, 26 & August 2, 1960.

 
Лог проверки качества
foobar2000 1.3.9 / Dynamic Range Meter 1.1.1
log date: 2018-06-12 12:15:28

--------------------------------------------------------------------------------
Analyzed: Ornette Coleman / This Is Our Music
--------------------------------------------------------------------------------

DR         Peak         RMS     Duration Track
--------------------------------------------------------------------------------
DR13      -2.09 dB   -18.16 dB      5:20 01-Blues Connotation
DR13      -2.95 dB   -21.49 dB      7:16 02-Beauty Is A Rare Thing
DR13      -1.34 dB   -18.32 dB      6:36 03-Kaleidoscope
DR13      -1.05 dB   -17.76 dB      4:59 04-Embraceable You
DR13      -1.57 dB   -19.97 dB      4:42 05-Poise
DR13      -2.81 dB   -19.99 dB      5:24 06-Humpty Dumpty
DR12      -1.74 dB   -17.99 dB      4:47 07-Folk Tale
--------------------------------------------------------------------------------

Number of tracks:  7
Official DR value: DR13

Samplerate:        192000 Hz
Channels:          2
Bits per sample:   24
Bitrate:           4992 kbps
Codec:             FLAC
================================================================================
 
Disc 4 • Free Jazz: A Collective Improvisation (1960)

Продолжительность : 36:55
Треклист :
01. Free Jazz (Part 1) (19:51)
02. Free Jazz (Part 2) (17:03)
Musicians
Left channel :
Ornette Coleman - alto saxophone
Don Cherry - pocket trumpet
Scott LaFaro - bass
Billy Higgins - drums
Right channel :
Eric Dolphy bass clarinet
Freddie Hubbard - trumpet
Charlie Haden - bass
Ed Blackwell - drums
Recorded on December 21, 1960.

 
Лог проверки качества
foobar2000 1.3.9 / Dynamic Range Meter 1.1.1
log date: 2018-06-12 12:16:01

--------------------------------------------------------------------------------
Analyzed: Ornette Coleman / Free Jazz: A Collective Improvisation
--------------------------------------------------------------------------------

DR         Peak         RMS     Duration Track
--------------------------------------------------------------------------------
DR14      -1.00 dB   -19.08 dB     19:51 01-Free Jazz (Part 1)
DR13      -1.99 dB   -19.03 dB     17:03 02-Free Jazz (Part 2)
--------------------------------------------------------------------------------

Number of tracks:  2
Official DR value: DR13

Samplerate:        192000 Hz
Channels:          2
Bits per sample:   24
Bitrate:           5582 kbps
Codec:             FLAC
================================================================================
 
Disc 5 • Ornette! (1961)

Продолжительность : 43:51
Треклист :
01. WRU (16:26)
02. T & T (4:36)
03. C & D (13:11)
04. RPDD (9:38)
Musicians :
Ornette Coleman - alto saxophone
Don Cherry - pocket trumpet
Scott LaFaro - bass
Ed Blackwell - drums
Recorded on January 31, 1961.

 
Лог проверки качества
foobar2000 1.3.9 / Dynamic Range Meter 1.1.1 
log date: 2018-06-12 12:16:39 
 -------------------------------------------------------------------------------- 
Analyzed: Ornette Coleman / Ornette! 
-------------------------------------------------------------------------------- 
 DR         Peak         RMS     Duration Track 
-------------------------------------------------------------------------------- 
DR12      -2.23 dB   -17.46 dB     16:26 01-WRU 
DR12      -2.43 dB   -17.95 dB      4:36 02-T & T 
DR12      -3.59 dB   -19.05 dB     13:11 03-C & D 
DR12      -1.73 dB   -17.01 dB      9:38 04-RPDD 
-------------------------------------------------------------------------------- 
 Number of tracks:  4 
Official DR value: DR12 
 Samplerate:        192000 Hz 
Channels:          2 
Bits per sample:   24 
Bitrate:           5276 kbps 
Codec:             FLAC 
================================================================================
 
Disc 6 • Ornette On Tenor (1961)

Продолжительность : 41:08
Треклист :
01. Cross Breeding (11:19)
02. Mapa (9:08)
03. Enfant (6:29)
04. EOS (6:38)
05. Ecars (7:35)
Musicians :
Ornette Coleman - tenor saxophone
Don Cherry - pocket trumpet
Jimmy Garrison - bass
Ed Blackwell - drums
Recorded on March 22 & 27, 1961.

 
Лог проверки качества
foobar2000 1.3.9 / Dynamic Range Meter 1.1.1 
log date: 2018-06-12 12:17:13 
 -------------------------------------------------------------------------------- 
Analyzed: Ornette Coleman / Ornette On Tenor 
-------------------------------------------------------------------------------- 
 DR         Peak         RMS     Duration Track 
-------------------------------------------------------------------------------- 
DR11      -1.00 dB   -15.87 dB     11:19 01-Cross Breeding 
DR11      -1.00 dB   -14.80 dB      9:08 02-Mapa 
DR12      -1.00 dB   -16.23 dB      6:29 03-Enfant 
DR12      -1.00 dB   -15.77 dB      6:38 04-EOS 
DR12      -1.00 dB   -15.77 dB      7:35 05-Ecars 
-------------------------------------------------------------------------------- 
 Number of tracks:  5 
Official DR value: DR12 
 Samplerate:        192000 Hz 
Channels:          2 
Bits per sample:   24 
Bitrate:           5484 kbps 
Codec:             FLAC 
================================================================================
 
Disc 7 • The Art Of Improvisers (1970)

Продолжительность : 45:21
Треклист :
01. The Circle With A Hole In The Middle (4:52)
02. Just For You (3:55)
03. The Fifth Of Beethoven (6:39)
04. The Alchemy Of Scott Lafaro (9:52)
05. Moon Inhabitants (4:35)
06. The Legend Of Bebop (7:18)
07. Harlem's Manhattan (8:09)
Musicians :
Ornette Coleman - alto saxophone; tenor saxophone on 7
Don Cherry - pocket trumpet; cornet on 2
Charlie Haden - bass on 1-3, 5, 6
Scott LaFaro - bass on 4
Jimmy Garrison - bass on 7
Billy Higgins - drums on 1, 2
Ed Blackwell - drums on 3-7
Rec.: October 9 (#1), May 22 (#2), 1959; July 26 (#3, 5, 6), 1960; January 31 (#4), March 27 (#7), 1961.

 
Лог проверки качества
foobar2000 1.3.9 / Dynamic Range Meter 1.1.1 
log date: 2018-06-12 12:17:51 
 -------------------------------------------------------------------------------- 
Analyzed: Ornette Coleman / The Art Of Improvisers 
-------------------------------------------------------------------------------- 
 DR         Peak         RMS     Duration Track 
-------------------------------------------------------------------------------- 
DR15      -1.00 dB   -20.15 dB      4:52 01-The Circle With A Hole In The Middle 
DR14      -3.20 dB   -22.47 dB      3:55 02-Just For You 
DR13      -1.00 dB   -18.32 dB      6:39 03-The Fifth Of Beethoven 
DR13      -1.85 dB   -16.93 dB      9:52 04-The Alchemy Of Scott Lafaro 
DR13      -1.04 dB   -18.42 dB      4:35 05-Moon Inhabitants 
DR14      -1.00 dB   -19.03 dB      7:18 06-The Legend Of Bebop 
DR12      -1.00 dB   -16.81 dB      8:09 07-Harlem's Manhattan 
-------------------------------------------------------------------------------- 
 Number of tracks:  7 
Official DR value: DR13 
 Samplerate:        192000 Hz 
Channels:          2 
Bits per sample:   24 
Bitrate:           5253 kbps 
Codec:             FLAC 
================================================================================
 
Disc 8 • Twins (1971)

Продолжительность : 43:25
Треклист :
01. First Take (17:04)
02. Little Symphony (5:18)
03. Monk And The Nun (5:54)
04. Check Up (10:13)
05. Joy Of A Toy (4:55)
Musicians :
Ornette Coleman - alto saxophone
Don Cherry - pocket trumpet on 1 (left), 4; trumpet on 2, 5; cornet on 3
Scott LaFaro - bass on 1 (left), 4
Charlie Haden - bass on 1 (right), 2, 3, 5
Billy Higgins - drums on 1 (left), 3
Ed Blackwell - drums on 1 (right), 2, 4, 5
Freddie Hubbard - trumpet on 1
Eric Dolphy - bass clarinet on 1
Recorded: May 22 (#3), 1959; July 19 (#2) and 26 (#5), December 21 (#1), 1960; January 31 (#4), 1961.

 
Лог проверки качества
foobar2000 1.3.9 / Dynamic Range Meter 1.1.1 
log date: 2018-06-12 12:18:28 
 -------------------------------------------------------------------------------- 
Analyzed: Ornette Coleman / Twins 
-------------------------------------------------------------------------------- 
 DR         Peak         RMS     Duration Track 
-------------------------------------------------------------------------------- 
DR13      -1.00 dB   -17.20 dB     17:04 01-First Take 
DR12      -1.00 dB   -16.79 dB      5:18 02-Little Symphony 
DR14      -1.00 dB   -20.26 dB      5:54 03-Monk And The Nun 
DR12      -1.00 dB   -17.17 dB     10:13 04-Check Up 
DR13      -1.00 dB   -17.38 dB      4:55 05-Joy Of A Toy 
-------------------------------------------------------------------------------- 
 Number of tracks:  5 
Official DR value: DR13 
 Samplerate:        192000 Hz 
Channels:          2 
Bits per sample:   24 
Bitrate:           5719 kbps 
Codec:             FLAC 
================================================================================
 
Disc 9 • To Whom Who Keeps A Record (1975)

Продолжительность : 40:18
Треклист :
01. Music Always (5:31)
02. Brings Goodness (6:40)
03. To Us (4:35)
04. All (4:34)
05. P.S. Unless One Has (Blues Connotation No. 2) (5:54)
06. Some Other (7:22)
07. Motive For Its Use (5:41)
Musicians :
Ornette Coleman - alto saxophone
Don Cherry - pocket trumpet
Charlie Haden - bass
Billy Higgins - drums on 1
Ed Blackwell - drums on 2-7
Recorded: October 8 (#1), 1959; July 19 (#5) and 25 (#2-4, 6, 7) 1960.

 
Лог проверки качества
foobar2000 1.3.9 / Dynamic Range Meter 1.1.1 
log date: 2018-06-12 12:19:01 
 -------------------------------------------------------------------------------- 
Analyzed: Ornette Coleman / To Whom Who Keeps A Record 
-------------------------------------------------------------------------------- 
 DR         Peak         RMS     Duration Track 
-------------------------------------------------------------------------------- 
DR16      -1.00 dB   -20.28 dB      5:31 01-Music Always 
DR15      -1.60 dB   -20.71 dB      6:40 02-Brings Goodness 
DR13      -1.00 dB   -17.74 dB      4:35 03-To Us 
DR14      -1.00 dB   -18.90 dB      4:34 04-All 
DR14      -1.00 dB   -17.46 dB      5:54 05-P.S. Unless One Has (Blues Connotation No. 2) 
DR14      -2.68 dB   -21.61 dB      7:22 06-Some Other 
DR14      -1.00 dB   -19.91 dB      5:41 07-Motive For Its Use 
-------------------------------------------------------------------------------- 
 Number of tracks:  7 
Official DR value: DR14 
 Samplerate:        192000 Hz 
Channels:          2 
Bits per sample:   24 
Bitrate:           4575 kbps 
Codec:             FLAC 
================================================================================
 
Disc 10 • The Ornette Coleman Legacy (1993)

Продолжительность : 36:52
Треклист :
01. Rise And Shine (6:15)
02. The Tribes Of New York (4:36)
03. I Heard It Over The Radio (6:23)
04. Revolving Doors (4:28)
05. Mr. And Mrs. People (4:43)
06. Proof Readers (10:28)
Musicians :
Ornette Coleman - alto saxophone, tenor saxophone
Don Cherry - pocket trumpet
Charlie Haden - bass
Ed Blackwell - drums
Recorded in 1959-1961.

 
Лог проверки качества
foobar2000 1.3.9 / Dynamic Range Meter 1.1.1 
log date: 2018-06-12 12:19:33 
 -------------------------------------------------------------------------------- 
Analyzed: Ornette Coleman / The Ornette Coleman Legacy 
-------------------------------------------------------------------------------- 
 DR         Peak         RMS     Duration Track 
-------------------------------------------------------------------------------- 
DR13      -2.12 dB   -19.25 dB      6:15 01-Rise And Shine 
DR13      -1.70 dB   -18.74 dB      4:36 02-The Tribes Of New York 
DR13      -2.38 dB   -19.26 dB      6:23 03-I Heard It Over The Radio 
DR12      -2.16 dB   -18.00 dB      4:28 04-Revolving Doors 
DR13      -1.94 dB   -18.20 dB      4:43 05-Mr. And Mrs. People 
DR14      -1.00 dB   -19.09 dB     10:28 06-Proof Readers 
-------------------------------------------------------------------------------- 
 Number of tracks:  6 
Official DR value: DR13 
 Samplerate:        192000 Hz 
Channels:          2 
Bits per sample:   24 
Bitrate:           4886 kbps 
Codec:             FLAC 
================================================================================
Any questions - support@pro-jazz.com.
Есть вопросы - support@pro-jazz.com
09:07
689
Нет комментариев. Ваш будет первым!