Поиск

2018 Nolatet - No Revenge Necessary {Royal Potato}

2018 Nolatet - No Revenge Necessary {Royal Potato}
Состав:
  • Johnny Vidacovich / Drums, Percussion, Timpani
  • James Singleton / Upright Bass, Pocket Trumpet, Bass Melodica
  • Mike Dillon / Vibes, Marimba, Tabla, Percussion
  • Brian Haas / Piano, Melodica

Носитель: WEB
Год издания: 2018
Издатель (лейбл): Web Release [Royal Potato Family]
Страна исполнителя (группы): US
Аудиокодек: FLAC (*.flac)
Тип рипа: tracks
Битрейт аудио: lossless
Продолжительность: 45:34 min
Источник (релизер): qobuz.com
Наличие сканов в содержимом раздачи: 

Треклист:
01. Lanky, Stanky Maestro. 3:34
02. Homer & Debbie. 4:42
03. Black Sheep. 4:30
04. No Revenge Necessary. 4:41
05. Elegant Miss J. 5:54
06. Dikefinger. 6:27
07. Bluebelly. 3:42
08. Pecos Wilderness. 4:10
09. Malabar. 5:40

 
DRM.log
foobar2000 1.3.8 / Dynamic Range Meter 1.1.1
log date: 2018-05-01 20:41:40
--------------------------------------------------------------------------------
Analyzed: Nolatet / No Revenge Necessary
--------------------------------------------------------------------------------
DR         Peak         RMS     Duration Track
--------------------------------------------------------------------------------
DR7       -1.07 dB   -10.66 dB      3:34 01-Lanky, Stanky, Maestro
DR7       -1.60 dB   -10.76 dB      4:41 02-Homer & Debbie
DR9       -0.93 dB   -13.32 dB      4:31 03-Black Sheep
DR12      -1.79 dB   -17.91 dB      4:41 04-No Revenge Necessary
DR9       -1.48 dB   -12.81 dB      5:53 05-Elegant Miss J
DR7       -1.04 dB   -11.20 dB      6:27 06-Dikefinger
DR8       -1.28 dB   -13.06 dB      2:17 07-Gracemont
DR7       -1.05 dB   -11.10 dB      3:41 08-Bluebelly
DR10      -0.95 dB   -15.04 dB      4:10 09-Pecos Wilderness
DR9       -1.01 dB   -14.24 dB      5:39 10-Malabar
--------------------------------------------------------------------------------
Number of tracks:  10
Official DR value: DR8
Samplerate:        44100 Hz
Channels:          2
Bits per sample:   16
Bitrate:           795 kbps
Codec:             FLAC
================================================================================
 
Лог проверки качества
-----------------------
DON'T MODIFY THIS FILE
-----------------------
PERFORMER: auCDtect Task Manager, ver. 1.6.0 RC1 build 1.6.0.1
Copyright (c) 2008-2010 y-soft. All rights reserved
http://y-soft.org
ANALYZER: auCDtect: CD records authenticity detector, version 0.8.2
Copyright (c) 2004 Oleg Berngardt. All rights reserved.
Copyright (c) 2004 Alexander Djourik. All rights reserved.
FILE: 01 - Lanky, Stanky, Maestro.flac
  Size: 23609895 Hash: 764DB96C4063FCC976ACE532A43AE660 Accuracy: -m0
  Conclusion: CDDA 100%
  Signature: D7A5FA5EB93535187DEE2E49D47A55B7EE2464DA
FILE: 02 - Homer & Debbie.flac
  Size: 32040702 Hash: 67310EC52FB058520437857DA4945077 Accuracy: -m0
  Conclusion: CDDA 100%
  Signature: 614FFB182A78D4B81DC6ECD66750A4F90A7B5705
FILE: 03 - Black Sheep.flac
  Size: 27932693 Hash: 8C1E8CFF302EB747BD3FEF4307E5DDBD Accuracy: -m0
  Conclusion: CDDA 100%
  Signature: 75CB3BC6FE69B181E7727B6C59C092B163FC2504
FILE: 04 - No Revenge Necessary.flac
  Size: 23984376 Hash: 8328E1BDB398598E67AE0AC7FAF66AEB Accuracy: -m0
  Conclusion: CDDA 100%
  Signature: EFCCE99991944886DF12BD8430A7CFAB3B4FF508
FILE: 05 - Elegant Miss J.flac
  Size: 36837853 Hash: 8164AFC80F5417A60CDBF30837504CA9 Accuracy: -m0
  Conclusion: CDDA 100%
  Signature: B10A21A2319664471B63ECE42158C46DFEC6F3CF
FILE: 06 - Dikefinger.flac
  Size: 43264034 Hash: D95F39E2D4A0F1AE25BE9800BDD20DA0 Accuracy: -m0
  Conclusion: CDDA 100%
  Signature: 6B4999E9A1AE0EA960A0519EDF96CA28875B1BBE
FILE: 07 - Gracemont.flac
  Size: 13556139 Hash: 61E4E5D8DBBF24436A1398A03FFE3A2C Accuracy: -m0
  Conclusion: CDDA 100%
  Signature: 3313A0BAE06FDC5132C1B9FAD04ABCEACC01184C
FILE: 08 - Bluebelly.flac
  Size: 25784012 Hash: 66EA0342C28A64286F73046A1359FB4B Accuracy: -m0
  Conclusion: CDDA 100%
  Signature: CAA1B3C9B58FC017CB772C18187B3EBE2818667A
FILE: 09 - Pecos Wilderness.flac
  Size: 23088014 Hash: D977C7D1457D4E44FDCCBC192F1A319A Accuracy: -m0
  Conclusion: CDDA 100%
  Signature: 9D80E7458188E153086846D8E6A7F9A303DEA88A
FILE: 10 - Malabar.flac
  Size: 33815787 Hash: 9BDEBF6BCE3E57E12F76C300B7654358 Accuracy: -m0
  Conclusion: CDDA 100%
  Signature: 1F03228B76F4D22AACDB74E693AA1F16E2007F30

 

Скачивание доступно после регистрации!!
Приватный:
Нет (DHT включён)
Размер:
272.09 Мб (285,310,463 байт) » файлов: 14
Участники:
3 раздают, 0 качают (3 участников всего)
Внешние участники:
--- [ Обновить ]
19:31
66
RSS
Нет комментариев. Ваш будет первым!