Поиск

2018 Armando Curiel - Familia {Web Release}

2018 Armando Curiel - Familia {Web Release}

Состав:
  •  Armando Curiel / drums

featuring:

  • Willy Zavala
  • Iraida Noriega
  • José Chacón
  • Juan Manuel Ayala
  • Malambres Arellano
  • Jonathan Barocio

Носитель: WEB
Год издания: 2018
Издатель (лейбл): Web Release
Страна исполнителя (группы): Mexico
Аудиокодек: FLAC (*.flac)
Тип рипа: tracks
Битрейт аудио: lossless
Продолжительность: 40:51
Источник (релизер): интернет
Наличие сканов в содержимом раздачи: 

Треклист:
01. Amanece. 4:06
02. Suenos de Altamar. 4:47
03. Desierto. 3:38
04. La Chicharra. 4:23
05. Ornamento. 6:53
06. Sin Miedo al Olvido. 4:43
07. The Race Pt 1. 1:57
08. The Race Pt 2. 4:14
09. El Viajero. 6:06

 
DRM.log
foobar2000 1.3.8 / Dynamic Range Meter 1.1.1
log date: 2018-05-01 21:49:13
--------------------------------------------------------------------------------
Analyzed: Armando Curiel / Familia
--------------------------------------------------------------------------------
DR         Peak         RMS     Duration Track
--------------------------------------------------------------------------------
DR8        0.00 dB   -11.63 dB      4:06 01-Amanece
DR6        0.00 dB    -8.80 dB      4:47 02-Sueños De Altamar
DR9        0.00 dB   -12.52 dB      3:39 03-Desierto
DR8       -0.01 dB   -10.36 dB      4:23 04-La Chicharra
DR10      -0.05 dB   -12.55 dB      6:54 05-Ornamento
DR9        0.00 dB   -12.86 dB      4:44 06-Sin Miedo Al Olvido
DR12      -0.10 dB   -15.97 dB      1:57 07-The Race, Pt. 1
DR8       -0.16 dB   -10.17 dB      4:15 08-The Race, Pt. 2
DR8        0.00 dB   -10.49 dB      6:06 09-El Viajero
--------------------------------------------------------------------------------
Number of tracks:  9
Official DR value: DR9
Samplerate:        44100 Hz
Channels:          2
Bits per sample:   16
Bitrate:           820 kbps
Codec:             FLAC
================================================================================
 
Лог проверки качества
-----------------------
DON'T MODIFY THIS FILE
-----------------------
PERFORMER: auCDtect Task Manager, ver. 1.6.0 RC1 build 1.6.0.1
Copyright (c) 2008-2010 y-soft. All rights reserved
http://y-soft.org
ANALYZER: auCDtect: CD records authenticity detector, version 0.8.2
Copyright (c) 2004 Oleg Berngardt. All rights reserved.
Copyright (c) 2004 Alexander Djourik. All rights reserved.
FILE: 01 - Amanece.flac
  Size: 24724882 Hash: E94F23BC1AF4B23319ABA7E94A85D73E Accuracy: -m0
  Conclusion: CDDA 100%
  Signature: D70E07B6C1252A6E77DFD5E23A0BCE775B8A2D4C
FILE: 02 - Suenos De Altamar.flac
  Size: 30071155 Hash: 57E48C8C0231A2F2B3E6C6B6791A7310 Accuracy: -m0
  Conclusion: CDDA 100%
  Signature: 9BE3BA9E62DA96F5FCAC6DB954EDBBAD5EF97026
FILE: 03 - Desierto.flac
  Size: 20699205 Hash: 74BBC0CE956AE75C9CC95921A0BCE233 Accuracy: -m0
  Conclusion: CDDA 100%
  Signature: AB84874D2E1A47314AF15DC7D740D86E8C398314
FILE: 04 - La Chicharra.flac
  Size: 28756581 Hash: 66AAE77AC8ACE7D83BD997814D23CFF5 Accuracy: -m0
  Conclusion: CDDA 100%
  Signature: 4866AF8D01CF25DC20A1BC3CF5909CB3002D22CF
FILE: 05 - Ornamento.flac
  Size: 41638729 Hash: B5C42505932EEF413388D228DFDB398C Accuracy: -m0
  Conclusion: CDDA 100%
  Signature: 5E1B394AD67844AB8C5BB8FC3E928895FFB0BB2C
FILE: 06 - Sin Miedo Al Olvido.flac
  Size: 22355314 Hash: B4F0783D206EF272A2D85512D84BBED1 Accuracy: -m0
  Conclusion: CDDA 100%
  Signature: 397C71765260F236F5E1AFF95EF7A7DA5C51E809
FILE: 07 - The Race, Pt. 1.flac
  Size: 6604914 Hash: 7FB15397532114BBD7E6601E9EFFEB5D Accuracy: -m0
  Conclusion: CDDA 86%
  Signature: A596B86E8627D07B220F2698929FDEBA640C9121
FILE: 08 - The Race, Pt. 2.flac
  Size: 26059129 Hash: D07C99E52A6A5DC1BAACAFAAE009CCA6 Accuracy: -m0
  Conclusion: CDDA 100%
  Signature: 2C34E68E06AB98641D6131DAD983E9927269C34C
FILE: 09 - El Viajero.flac
  Size: 37613675 Hash: D3C0F64110068C9D30C81A2ED5220178 Accuracy: -m0
  Conclusion: CDDA 100%
  Signature: 9AEE8DE18D9517AFF3EA3180920CA910F9FA07E7

 

Приватный:
Нет (DHT включён)
Размер:
227.63 Мб (238,685,652 байт) » файлов: 14
Участники:
3 раздают, 0 качают (3 участников всего)
Внешние участники:
--- [ Обновить ]
19:43
34
RSS
Нет комментариев. Ваш будет первым!