Поиск

2012 Florian Pellissier Quintet - Le Diable Et Son Train {L'Autre}

2012 Florian Pellissier Quintet - Le Diable Et Son Train {L'Autre}
Состав:
  • Florian Pellissier / piano
  • Yoann Loustalot / trumpet, flugelhorn
  • Christophe Panzani / tenor, soprano saxophone
  • Yoni Zelnik / bass
  • David Georgelet / drums

Носитель: WEB
Год издания: 2012
Издатель (лейбл): Web Release (L'Autre Distribution)
Страна исполнителя (группы): France
Аудиокодек: FLAC (*.flac)
Тип рипа: tracks
Битрейт аудио: lossless
Продолжительность: 64:05
Источник (релизер): qobuz.com
Наличие сканов в содержимом раздачи: 

Треклист:
1. Bleu nuit. 3:53
2. I Have a Dream. 6:48
3. Le diable et son train. 4:45
4. Boussole. 2:55
5. Future Space 3. 6:01
6. En haut de la pyramide. 3:38
7. Sissi reprise. 6:57
8. Little One. 5:30
9. Sissi. 23:38

 
DRM.log
foobar2000 1.3.8 / Dynamic Range Meter 1.1.1
log date: 2018-05-02 20:12:10
--------------------------------------------------------------------------------
Analyzed: Florian Pellissier Quintet / Le Diable Et Son Train
--------------------------------------------------------------------------------
DR         Peak         RMS     Duration Track
--------------------------------------------------------------------------------
DR11      -0.22 dB   -16.59 dB      3:53 01-Bleu nuit
DR9        0.00 dB   -11.09 dB      6:48 02-I Have a Dream
DR8        0.00 dB    -9.90 dB      4:45 03-Le diable et son train
DR12      -0.10 dB   -17.09 dB      2:55 04-Boussole
DR8        0.00 dB    -9.67 dB      6:01 05-Future Space 3
DR9        0.00 dB   -12.04 dB      3:38 06-En haut de la pyramide
DR9        0.00 dB   -11.08 dB      6:57 07-Sissi reprise
DR10       0.00 dB   -14.19 dB      5:30 08-Little One
DR9        0.00 dB   -12.66 dB     23:38 09-Sissi
--------------------------------------------------------------------------------
Number of tracks:  9
Official DR value: DR9
Samplerate:        44100 Hz
Channels:          2
Bits per sample:   16
Bitrate:           894 kbps
Codec:             FLAC
================================================================================
 
Лог проверки качества
-----------------------
DON'T MODIFY THIS FILE
-----------------------
PERFORMER: auCDtect Task Manager, ver. 1.6.0 RC1 build 1.6.0.1
Copyright (c) 2008-2010 y-soft. All rights reserved
http://y-soft.org
ANALYZER: auCDtect: CD records authenticity detector, version 0.8.2
Copyright (c) 2004 Oleg Berngardt. All rights reserved.
Copyright (c) 2004 Alexander Djourik. All rights reserved.
FILE: 01 - Bleu nuit.flac
  Size: 24024086 Hash: D8906BC1E5C359CF2CEA96236A7EFF1E Accuracy: -m0
  Conclusion: CDDA 100%
  Signature: 26E0F6FBCEC6EAF9F497FD894E2DFA37879E5615
FILE: 02 - I Have a Dream.flac
  Size: 49991980 Hash: 016D547747DBF7B0AF4E314567D983FA Accuracy: -m0
  Conclusion: CDDA 100%
  Signature: 8E038DE7370FF0E0A4DD58F7C90FF4C8481EDB0F
FILE: 03 - Le diable et son train.flac
  Size: 36730816 Hash: D0A7B298AE1D34B40E70FDFEB65DB9B2 Accuracy: -m0
  Conclusion: CDDA 100%
  Signature: DEFB90B5274108B845B72C7C29270143682B633C
FILE: 04 - Boussole.flac
  Size: 16944146 Hash: 5DEDE9ED0C9F9AD9E0EC7B01FF7A6A66 Accuracy: -m0
  Conclusion: CDDA 100%
  Signature: 44DE935E0049E24CA9D870A2BE9FF5E4BE26207C
FILE: 05 - Future Space 3.flac
  Size: 42854955 Hash: 5891110D7A11EA29DCCA1678E48A691C Accuracy: -m0
  Conclusion: CDDA 100%
  Signature: E84340867B274497D9FB3CA64A39AC5AE7057DC8
FILE: 06 - En haut de la pyramide.flac
  Size: 26328536 Hash: 5DA267DC545BA11EF75E099A44127866 Accuracy: -m0
  Conclusion: CDDA 100%
  Signature: 6780D62BF64827FE919FDCBAF9C5AD7025BBD38B
FILE: 07 - Sissi reprise.flac
  Size: 53497375 Hash: 83DC29ADDFC183F7EDCC2074C84380B3 Accuracy: -m0
  Conclusion: CDDA 100%
  Signature: 8E004D891183A56DB0084011E6158A677EC8825E
FILE: 08 - Little One.flac
  Size: 35084035 Hash: 7156229B33007E933C9A446CFD982BD4 Accuracy: -m0
  Conclusion: CDDA 100%
  Signature: 74002D4B926AA91F0D9049900076A1504042858A
FILE: 09 - Sissi.flac
  Size: 158646014 Hash: 963AF41D83E5046A15BA7F5ABC0F92B5 Accuracy: -m0
  Conclusion: CDDA 100%
  Signature: A016EFC9110A932078B10A267FDBD2136F25E494

 

Приватный:
Нет (DHT включён)
Размер:
424.03 Мб (444,628,113 байт) » файлов: 14
Участники:
3 раздают, 0 качают (3 участников всего)
Внешние участники:
--- [ Обновить ]
19:53
14
RSS
Нет комментариев. Ваш будет первым!