Поиск

2018 Miho Hazama & Metropole Orkest Big Band - The Monk: Live at Bimhuis {Sunnyside} [24-48]

2018 Miho Hazama & Metropole Orkest Big Band - The Monk: Live at Bimhuis {Sunnyside} [24-48]
Стили:
Дата записи диска:
13 октября 2017
Место записи:
Bimhuis, Amsterdam, The Netherlands
Дата издания диска:
31 августа 2018
Издатель (лейбл):
Битрейт аудио:
lossless
Треклист:

01. Thelonious (Monk) - 6:43
02. Ruby, My Dear (Monk) - 8:37
03. Friday the 13th (Monk) - 6:58
04. Hackensack (Monk) - 6:51
05. 'Round Midnight (Hanighen-Monk-Williams) - 7:53
06. Epistrophy (Monk-Clarke) - 7:52
07. Crepuscule with Nellie (Monk) - 5:15

Состав:
  • Miho Hazama — conductor, arranger
  • Metropole Orkest Big Band:
  • Marc Scholten — saxophone, clarinet
  • Paul van der Feen — saxophone, clarinet
  • Leo Janssen — saxophone, clarinet
  • Sjoerd Dijkhuizen — saxophone, clarinet
  • Max Boeree — saxophone, clarinet
  • Ray Bruinsma — trumpet
  • Martijn de Laat — trumpet
  • Nico Schepers — trumpet
  • Rik Mol — trumpet
  • Jan Oosting — trombone
  • Look Boudesteijn — trombone
  • Jan Bastian — trombone
  • Martin van den Berg — bass trombone
  • Marcel Serierse — drums
  • Aram Kersbergen — bass
  • Peter Tiehuis — guitar
  • Hans Vroomans — piano
Доп. инфо:

Формат записи/Источник записи: [TR24][OF]
Наличие водяных знаков: Нет
Год издания/переиздания диска: 2018
Издатель (лейбл): Sunnyside
Продолжительность: 00:50:09
Наличие сканов в содержимом раздачи: Только обложка альбома

Контейнер: FLAC (*.flac)
Тип рипа: tracks
Разрядность: 24/48
Формат: PCM
Количество каналов: 2.0

Источник (релизер): https://mihohazama.bandcamp.com/album/the-monk-live-at-bimhuis

Лог проверки качества
foobar2000 1.5.1 / Dynamic Range Meter 1.1.1
log date: 2020-03-03 15:36:57

--------------------------------------------------------------------------------
Analyzed: Miho Hazama & Metropole Orkest Big Band / The Monk: Live at Bimhuis
--------------------------------------------------------------------------------

DR         Peak         RMS     Duration Track
--------------------------------------------------------------------------------
DR8       -1.16 dB   -12.38 dB      6:43 01-Thelonious
DR11      -1.16 dB   -16.11 dB      8:37 02-Ruby, My Dear
DR8       -1.16 dB   -11.81 dB      6:58 03-Friday the 13th
DR8       -1.16 dB   -12.22 dB      6:51 04-Hackensack
DR14      -1.16 dB   -20.19 dB      7:53 05-'Round Midnight
DR8       -1.16 dB   -10.99 dB      7:52 06-Epistrophy
DR13      -1.16 dB   -17.15 dB      5:15 07-Crepuscule with Nellie
--------------------------------------------------------------------------------

Number of tracks:  7
Official DR value: DR10

Samplerate:        48000 Hz
Channels:          2
Bits per sample:   24
Bitrate:           1550 kbps
Codec:             FLAC
================================================================================
По всем вопросам пишите личное сообщение пользователю M0p94ok.
10:04
468
Нет комментариев. Ваш будет первым!