Вы используете незарегистрированную версию компонента "Вкладки"!

Поиск

1959 Eddie ''Lockjaw'' Davis Quintet With Shirley Scott - Jaws In Orbit! (2019) {RevOla} [24-44,1]

1959 Eddie ''Lockjaw'' Davis Quintet With Shirley Scott - Jaws In Orbit! (2019) {RevOla} [24-44,1]
Дата записи диска:
1 мая 1959
Место записи:
Hackensack, NJ
Издатель (лейбл):
Битрейт аудио:
lossless
Доп. инфо:

Формат записи/Источник записи: [TR24][OF]
Издание: Remastered
Год издания/переиздания диска: 1959/2019
Издатель (лейбл): RevOla
Продолжительность: 00:37:26
Наличие сканов в содержимом раздачи: Нет

Контейнер: FLAC (*.flac)
Тип рипа: tracks
Разрядность: 24/44,1
Количество каналов: 2.0

Источник (релизер): Qobuz

Лог проверки качества
foobar2000 1.3.16 / Dynamic Range Meter 1.1.1
log date: 2019-05-12 15:25:22

--------------------------------------------------------------------------------
Analyzed: Eddie 'Lockjaw' Davis & Shirley Scott / Jaws In Orbit!
--------------------------------------------------------------------------------

DR         Peak         RMS     Duration Track
--------------------------------------------------------------------------------
DR16      -1.92 dB   -20.42 dB      6:25 01-Intermission Riff
DR15      -1.60 dB   -19.80 dB      5:25 02-Can't Get Out Of This Mood
DR14      -1.59 dB   -18.44 dB      5:52 03-Foxy
DR15      -1.71 dB   -18.99 dB      6:22 04-Our Delight
DR16      -1.96 dB   -20.66 dB      7:30 05-Bahia
DR15      -1.45 dB   -19.95 dB      5:57 06-Bingo Domingo
--------------------------------------------------------------------------------

Number of tracks:  6
Official DR value: DR15

Samplerate:        44100 Hz
Channels:          2
Bits per sample:   24
Bitrate:           1550 kbps
Codec:             FLAC
================================================================================
Any questions - support@pro-jazz.com. Есть вопросы - support@pro-jazz.com
00:00
254
Нет комментариев. Ваш будет первым!