Поиск

2018 Laila Biali - Laila Biali {ACT Music} [24-96]

2018 Laila Biali - Laila Biali {ACT Music} [24-96]
Стили:
Издатель (лейбл):
Состав:
  • Laila Biali, vocals, piano, keyboards
  • George Koller, bass
  • Larnell Lewis, drums (on tracks 01, 02, 04, 08, 09, 11, 12)
  • Ben Wittman, drums (on tracks 03, 05, 06, 07), percussion
  • Ambrose Akinmusire, trumpet (on tracks 03, 05)
  • Mike “Maz” Maher, trumpet (on tracks 02, 08, 09, 11)
  • Sam Yahel, organ (on tracks 01, 02, 05, 06, 07, 08, 09, 12)
  • Glenn Patscha, organ (solo on track 02), keyboards (on track 12)
  • Lisa Fischer, vocals (on tracks 01, 02, 05, 06, 07, 08)
  • Jo Lawry, vocals (all tracks except 09)
  • Carlos Ricketts, vocals (on tracks 01, 02, 06, 07)

Recorded March — October, 2016 at Revolution Recording (Toronto), Wittman Productions (Toronto), Mission Sound (Brooklyn), Vibramonk Studios (Brooklyn), Fantasy Studios (San Francisco); Pod Noise Studio (New York City)
Mixed by Tim Abraham
Mastered by João Carvalho
Produced by Ben Wittman & Laila Biali
 

Формат записи/Источник записи: [TR24][OF]
Наличие водяных знаков: Нет
Год издания/переиздания диска: 2018
Продолжительность: 56:08
Наличие сканов в содержимом раздачи: Буклет PDF
Контейнер: FLAC (*.flac)
Тип рипа: tracks
Разрядность: 24/96
Формат: PCM
Количество каналов: 2.0
Источник: qobuz.com

Треклист:
01. Got To Love (3:14)
02. We Go (5:17)
03. Satellite (5:06)
04. Yellow (4:43)
05. Refugee (5:26)
06. Dolores Angel (4:35)
07. Queen Of Hearts (4:54)
08. Serenbe (4:22)
09. Code Breaking (4:46)
10. I Think It's Going To Rain Today (3:38)
11. Wind (5:21)
12. Let's Dance (4:45)

 
Лог проверки качества
foobar2000 1.3.9 / Dynamic Range Meter 1.1.1
log date: 2018-05-22 17:08:33
--------------------------------------------------------------------------------
Analyzed: Laila Biali / Laila Biali
--------------------------------------------------------------------------------
DR         Peak         RMS     Duration Track
--------------------------------------------------------------------------------
DR6       -0.48 dB    -8.03 dB      3:14 01-Got To Love
DR6       -0.48 dB    -8.58 dB      5:17 02-We Go
DR6       -0.55 dB    -9.94 dB      5:06 03-Satellite
DR6       -0.57 dB   -10.54 dB      4:43 04-Yellow
DR5       -0.55 dB    -9.25 dB      5:26 05-Refugee
DR6       -0.55 dB    -9.82 dB      4:35 06-Dolores Angel
DR6       -0.55 dB    -7.92 dB      4:54 07-Queen Of Hearts
DR6       -0.48 dB    -8.59 dB      4:22 08-Serenbe
DR5       -0.60 dB    -8.82 dB      4:46 09-Code Breaking
DR12      -0.57 dB   -16.61 dB      3:38 10-I Think It's Going To Rain Today
DR5       -0.55 dB    -8.46 dB      5:21 11-Wind
DR7       -0.48 dB    -9.51 dB      4:45 12-Let's Dance
--------------------------------------------------------------------------------
Number of tracks:  12
Official DR value: DR6
Samplerate:        96000 Hz
Channels:          2
Bits per sample:   24
Bitrate:           3024 kbps
Codec:             FLAC
================================================================================

 

Скачивание доступно после регистрации!!
Приватный:
Нет (DHT включён)
Размер:
1.16 Гб (1,247,116,466 байт) » файлов: 17
Участники:
0 раздают, 0 качают (0 участников всего)
Внешние участники:
--- [ Обновить ]
11:49
32
RSS
Нет комментариев. Ваш будет первым!