Поиск

2018 Esbjorn Svensson Trio (E.S.T.) - Live in London (2CD) {ACT Music ACT 9042-2} [24-96]

2018 Esbjorn Svensson Trio (E.S.T.) - Live in London (2CD) {ACT Music ACT 9042-2} [24-96]
Издатель (лейбл):

Состав:
  • Esbjörn Svensson - piano
  • Dan Berglund - double bass
  • Magnus Öström - drums

Год издания: 2018
Номер по каталогу: ACT 9042-2
Страна исполнителя: Sweden
Аудиокодек: FLAC (*.flac)
Разрядность: 24 bits / 96 kHz
Количество каналов: 2.0
Тип рипа: tracks
Битрейт аудио: lossless
Продолжительность: 61:34 + 44:20 = 01:45:54
Источник (релизер): WEB
Наличие сканов: front

Треклист:
CD 1
1. Tide of Trepidation
2. Eighty-Eight Days in My Veins
3. Viaticum
4. Mingle in the Mincing-Machine
5. In the Tail of Her Eye
6. The Unstable Table & the Infamous Fable
CD 2
1. When God Created the Coffeebreak
2. Behind the Yashmak
3. Believe, Beleft, Below
4. Spunky Sprawl

 
Лог проверки качества
foobar2000 1.3.12 / Замер динамического диапазона (DR) 1.1.1
Дата отчёта:  2018-05-22 22:39:46
--------------------------------------------------------------------------------
Анализ:   Esbjorn Svensson Trio / e.s.t. Live in London
--------------------------------------------------------------------------------
DR         Пики         RMS           Продолжительность трека
--------------------------------------------------------------------------------
DR12      -0.50 дБ   -16.52 дБ      9:51 01-Tide of Trepidation
DR11      -0.50 дБ   -14.57 дБ     10:17 02-Eighty-Eight Days in My Veins
DR14      -1.13 дБ   -19.66 дБ      6:56 03-Viaticum
DR10      -0.04 дБ   -13.72 дБ     14:22 04-Mingle in the Mincing-Machine
DR14      -2.89 дБ   -21.69 дБ      7:13 05-In the Tail of Her Eye
DR10      -0.50 дБ   -15.22 дБ     12:55 06-The Unstable Table & the Infamous Fable
--------------------------------------------------------------------------------
Количество треков: 6
Реальные значения DR: DR12
Частота:   96000 Гц
Каналов:   2
Разрядность:   24
Битрейт:   2534 кбит/с
Кодек:   FLAC
================================================================================
••••••••••
foobar2000 1.3.12 / Замер динамического диапазона (DR) 1.1.1
Дата отчёта:  2018-05-22 22:43:59
--------------------------------------------------------------------------------
Анализ:   Esbjorn Svensson Trio / e.s.t. Live in London
--------------------------------------------------------------------------------
DR         Пики         RMS           Продолжительность трека
--------------------------------------------------------------------------------
DR10      -0.50 дБ   -13.68 дБ      8:53 01-When God Created the Coffeebreak
DR10      -0.50 дБ   -15.13 дБ     17:32 02-Behind the Yashmak
DR14      -1.54 дБ   -20.00 дБ      7:24 03-Believe, Beleft, Below
DR11      -0.50 дБ   -14.26 дБ     10:31 04-Spunky Sprawl
--------------------------------------------------------------------------------
Количество треков: 4
Реальные значения DR: DR11
Частота:   96000 Гц
Каналов:   2
Разрядность:   24
Битрейт:   2700 кбит/с
Кодек:   FLAC
================================================================================

 

Скачивание доступно после регистрации!!
Приватный:
Нет (DHT включён)
Размер:
1.92 Гб (2,060,662,993 байт) » файлов: 15
Участники:
0 раздают, 0 качают (0 участников всего)
Внешние участники:
--- [ Обновить ]
12:05
30
RSS
Нет комментариев. Ваш будет первым!