Поиск

2018 Echoes Of Swing - Travelin' {ACT Music} [24-96]

2018 Echoes Of Swing - Travelin' {ACT Music} [24-96]
Издатель (лейбл):
Состав:
  • Colin T. Dawson - trumpet, cornet, flugelhorn, vocals
  • Chris Hopkins - alto saxophone
  • Bernd Lhotzky - piano, celesta
  • Oliver Mewes - drums

Recorded September 5 — 7, 2017 by Erich Pintar at Tonstudio Weinberg der Landesmusikdirektion, Kefermarkt, Austria.
 

Формат записи/Источник записи: [TR24][OF]
Наличие водяных знаков: Нет
Год издания/переиздания диска: 2018
Продолжительность: 55:39
Наличие сканов в содержимом раздачи: Буклет PDF
Контейнер: FLAC (*.flac)
Тип рипа: tracks
Разрядность: 24/96
Формат: PCM
Количество каналов: 2.0
Источник: highresaudio.com

Треклист:
01. Orient Express (4:32)
02. Volare (3:24)
03. The Old Country (4:40)
04. On A Slow Goat Through China (3:04)
05. Das Wrack Der Guten Hoffnung (3:18)
06. The Fiji Hula Bula (3:59)
07. Where Or When (4:07)
08. On A Turquoise Cloud (3:48)
09. Cabin In The Sky (3:22)
10. Gan Hyem (Going Home) (2:49)
11. Southern Sunset (4:06)
12. En Auto (2:37)
13. Trav'lin' Light (4:25)
14. Disorder At The Border (3:06)
15. Wohin? (4:21)

 
Лог проверки качества
foobar2000 1.3.9 / Dynamic Range Meter 1.1.1
log date: 2018-05-23 15:24:36
--------------------------------------------------------------------------------
Analyzed: Echoes of Swing / Travelin'
--------------------------------------------------------------------------------
DR         Peak         RMS     Duration Track
--------------------------------------------------------------------------------
DR9       -0.70 dB   -11.08 dB      4:32 01-Orient Express
DR9       -0.70 dB   -11.92 dB      3:24 02-Volare
DR8       -0.70 dB   -11.34 dB      4:40 03-The Old Country
DR9       -0.70 dB   -11.94 dB      3:04 04-On A Slow Goat Through China
DR8       -0.70 dB   -11.12 dB      3:18 05-Das Wrack Der Guten Hoffnung
DR9       -0.70 dB   -11.66 dB      3:59 06-The Fiji Hula Bula
DR9       -0.70 dB   -13.15 dB      4:07 07-Where Or When
DR10      -0.70 dB   -13.60 dB      3:48 08-On A Turquoise Cloud
DR9       -0.70 dB   -13.02 dB      3:22 09-Cabin In The Sky
DR9       -0.70 dB   -11.62 dB      2:49 10-Gan Hyem (Going Home)
DR9       -0.70 dB   -11.36 dB      4:06 11-Southern Sunset
DR10      -0.70 dB   -12.39 dB      2:37 12-En Auto
DR11      -0.70 dB   -13.62 dB      4:25 13-Trav'lin' Light
DR9       -0.70 dB   -11.64 dB      3:06 14-Disorder At The Border
DR8       -0.70 dB   -10.68 dB      4:21 15-Wohin?
--------------------------------------------------------------------------------
Number of tracks:  15
Official DR value: DR9
Samplerate:        96000 Hz
Channels:          2
Bits per sample:   24
Bitrate:           3116 kbps
Codec:             FLAC
================================================================================

 

Приватный:
Нет (DHT включён)
Размер:
1.20 Гб (1,291,010,312 байт) » файлов: 20
Участники:
0 раздают, 0 качают (0 участников всего)
Внешние участники:
--- [ Обновить ]
Скорость:
0/c 55.28 Кб/c
12:25
25
RSS
Нет комментариев. Ваш будет первым!