Поиск

2018 Alex Monfort Trio - Introspection {jazz family} [24-48]

2018 Alex Monfort Trio - Introspection {jazz family} [24-48]
Стили:
Издатель (лейбл):
Треклист:

Формат записи/Источник записи: [TR24][OF]
Наличие водяных знаков: Нет
Год издания/переиздания диска: 2018
Продолжительность: 40:00
Наличие сканов в содержимом раздачи: Только обложка альбома
Контейнер: FLAC (*.flac)
Тип рипа: tracks
Разрядность: 24/48
Формат: PCM
Количество каналов: 2.0
Источник: qobuz.com

Треклист:
01. Mulgrew's Mood (4:44)
02. Body Without Soul (5:54)
03. Introspection (3:10)
04. Prelude To Someone (5:42)
05. Mc Coltrane (4:49)
06. Early Walk In O.K.B. (7:07)
07. She's Falling Asleep (2:12)
08. Nine Blues (6:21)
 

 
Лог проверки качества
foobar2000 1.3.9 / Dynamic Range Meter 1.1.1
log date: 2018-05-23 17:06:27
--------------------------------------------------------------------------------
Analyzed: Alex Monfort Trio / Introspection
--------------------------------------------------------------------------------
DR         Peak         RMS     Duration Track
--------------------------------------------------------------------------------
DR11      -0.42 dB   -13.53 dB      4:44 01-Mulgrew's Mood
DR10      -0.42 dB   -13.79 dB      5:54 02-Body Without Soul
DR11      -0.42 dB   -13.23 dB      3:10 03-Introspection
DR13      -2.98 dB   -19.30 dB      5:42 04-Prelude To Someone
DR11      -0.42 dB   -12.89 dB      4:49 05-Mc Coltrane
DR13      -0.42 dB   -16.07 dB      7:07 06-Early Walk In O.K.B.
DR12      -2.21 dB   -17.88 dB      2:12 07-She's Falling Asleep
DR10      -0.42 dB   -12.83 dB      6:21 08-Nine Blues
--------------------------------------------------------------------------------
Number of tracks:  8
Official DR value: DR11
Samplerate:        48000 Hz
Channels:          2
Bits per sample:   24
Bitrate:           1777 kbps
Codec:             FLAC
================================================================================

 

Скачивание доступно после регистрации!!
Приватный:
Нет (DHT включён)
Размер:
503.61 Мб (528,071,682 байт) » файлов: 12
Участники:
1 раздают, 0 качают (1 участников всего)
Внешние участники:
5 раздают, 2 качают (7 участников всего) [ Обновить ]
13:15
97
Нет комментариев. Ваш будет первым!