Поиск

2018 Joachim Kühn New Trio - Love & Peace {ACT} [24-88,2]

2018 Joachim Kühn New Trio - Love & Peace {ACT} [24-88,2]
Стили:
Издатель (лейбл):

Треклист:

Формат записи/Источник записи: [TR24][OF]
Наличие водяных знаков: Нет
Год издания/переиздания диска: 2018
Продолжительность: 46:38
Наличие сканов в содержимом раздачи: Буклет PDF
Контейнер: FLAC (*.flac)
Тип рипа: tracks
Разрядность: 24/88,2
Формат: PCM
Количество каналов: 2.0
Источник: qobuz.com

Треклист:
01. Love And Peace (2:00)
02. Le Vieux Chateau (4:13)
03. The Crystal Ship (3:20)
04. Mustang (5:15)
05. Barcelona-Wien (3:50)
06. But Strokes Of Folk (4:15)
07. Lied Ohne Worte No. 2 (3:43)
08. Casbah Radio (3:53)
09. Night Plans (4:17)
10. New Pharoah (5:21)
11. Phrasen (6:32)

 
Лог проверки качества
foobar2000 1.3.9 / Dynamic Range Meter 1.1.1
log date: 2018-05-22 16:53:02
--------------------------------------------------------------------------------
Analyzed: Joachim Kühn New Trio / Love & Peace
--------------------------------------------------------------------------------
DR         Peak         RMS     Duration Track
--------------------------------------------------------------------------------
DR9       -0.70 dB   -12.64 dB      2:00 01-Love And Peace
DR9       -0.70 dB   -12.44 dB      4:13 02-Le Vieux Chateau
DR8       -0.70 dB   -11.85 dB      3:20 03-The Crystal Ship
DR9       -0.70 dB   -11.85 dB      5:15 04-Mustang
DR9       -0.70 dB   -12.86 dB      3:50 05-Barcelona-Wien
DR10      -0.70 dB   -13.23 dB      4:15 06-But Strokes Of Folk
DR10      -0.70 dB   -14.23 dB      3:43 07-Lied Ohne Worte No. 2
DR8       -0.70 dB   -11.44 dB      3:53 08-Casbah Radio
DR10      -0.70 dB   -14.59 dB      4:17 09-Night Plans
DR11      -0.70 dB   -14.74 dB      5:21 10-New Pharoah
DR9       -0.70 dB   -12.40 dB      6:32 11-Phrasen
--------------------------------------------------------------------------------
Number of tracks:  11
Official DR value: DR9
Samplerate:        88200 Hz
Channels:          2
Bits per sample:   24
Bitrate:           2834 kbps
Codec:             FLAC
================================================================================

 

Состав:
  • Joachim Kühn - p
  • Chris Jennings - b
  • Eric Schaefer - d
  • Recorded May 15 & 16, 2017 by Gérard de Haro at Studios La Buissonne, France
  • Mixed by Gérard de Haro
  • Mastered by Klaus Scheuermann
  • Produced by Joachim Kühn
По всем вопросам пишите личное сообщение пользователю M0p94ok.
10:42
604
Нет комментариев. Ваш будет первым!