Поиск

2018 Klapparat - Tilting Axis {Unit}

2018 Klapparat - Tilting Axis {Unit}
Состав:
  • Daniel Zumofen / soprano saxophone, alto saxophone, glockenspiel
  • Matthias Wenger / sopran saxophone, alto saxophone, harmonium
  • Ivo Prato Prato / tenor saxophone, soprano saxophone, clarinet, glockenspiel
  • Erwin Brunisholz / bariton saxophone, c-b clarinet, glockenspiel
  • Michel Duc / tuba
  • Philippe Ducommun / drums, glockenspiel

Носитель: WEB
Год издания: 29 мая 2018
Издатель (лейбл): Unit Records
Страна исполнителя (группы): Switzerland
Аудиокодек: FLAC (*.flac)
Тип рипа: tracks
Битрейт аудио: lossless
Продолжительность: 47:23
Источник (релизер): qobuz.com
Наличие сканов в содержимом раздачи: 

Треклист:
01. Snow Dance. 2:41
02. Angry Promoter. 4:05
03. Do. 3:57
04. Rattlesnake. 2:29
05. Little Lady. 4:14
06. Etude In Schwarz. 6:48
07. Her Sister. 2:39
08. Klappern. 1:26
09. Overload. 4:48
10. Waiting for Snow. 5:32
11. Pelasgos, Pt. 7. 4:30
12. Run. 4:09

 
DRM.log
foobar2000 1.3.8 / Dynamic Range Meter 1.1.1
log date: 2018-05-09 21:31:32
--------------------------------------------------------------------------------
Analyzed: Klapparat / Tilting Axis
--------------------------------------------------------------------------------
DR         Peak         RMS     Duration Track
--------------------------------------------------------------------------------
DR9       -0.11 dB   -12.01 dB      2:41 01-Snow Dance
DR10      -0.11 dB   -12.33 dB      4:05 02-Angry Promoter
DR11      -0.11 dB   -12.99 dB      3:58 03-Do
DR9       -0.11 dB   -10.58 dB      2:29 04-Rattlesnake
DR10      -0.11 dB   -13.04 dB      4:14 05-Little Lady
DR10      -0.11 dB   -13.53 dB      6:49 06-Etude in Schwarz
DR8       -0.11 dB   -11.98 dB      2:40 07-Her Sister
DR13      -0.11 dB   -15.21 dB      1:27 08-Klappern
DR9       -0.11 dB   -11.26 dB      4:48 09-Overload
DR12      -0.11 dB   -13.89 dB      5:32 10-Waiting for Snow
DR8       -0.11 dB    -9.98 dB      4:30 11-Pelasgos, Pt. 7
DR9       -0.11 dB   -12.07 dB      4:09 12-Run
--------------------------------------------------------------------------------
Number of tracks:  12
Official DR value: DR10
Samplerate:        44100 Hz
Channels:          2
Bits per sample:   16
Bitrate:           866 kbps
Codec:             FLAC
================================================================================
 
Лог проверки качества
-----------------------
DON'T MODIFY THIS FILE
-----------------------
PERFORMER: auCDtect Task Manager, ver. 1.6.0 RC1 build 1.6.0.1
Copyright (c) 2008-2010 y-soft. All rights reserved
http://y-soft.org
ANALYZER: auCDtect: CD records authenticity detector, version 0.8.2
Copyright (c) 2004 Oleg Berngardt. All rights reserved.
Copyright (c) 2004 Alexander Djourik. All rights reserved.
FILE: 01 - Snow Dance.flac
  Size: 17813242 Hash: 6CF92210129A09508ACA2661B0966692 Accuracy: -m0
  Conclusion: CDDA 100%
  Signature: 5DB39FD58722CCCF3C879B9BA0DE166AAB25F8F5
FILE: 02 - Angry Promoter.flac
  Size: 24540216 Hash: 8A3A293B386A95D20E5C210C52354A74 Accuracy: -m0
  Conclusion: CDDA 100%
  Signature: 1C1C575858E9C89749F43985A08E99DEA2E84BD6
FILE: 03 - Do.flac
  Size: 24875915 Hash: BDBD30E97DF727B2C14D47A7DFB36C93 Accuracy: -m0
  Conclusion: CDDA 99%
  Signature: 169D88DEEDCE9DC638B440AA6CEFC361FEFC2CB8
FILE: 04 - Rattlesnake.flac
  Size: 16478672 Hash: 6BA2BBCB4B21C8D12CC479F8D645805D Accuracy: -m0
  Conclusion: CDDA 100%
  Signature: 62A5018772BB0F9091DB32DA5CA0CFF6ED92D4DD
FILE: 05 - Little Lady.flac
  Size: 26846171 Hash: FBD04172CF63841F7751AEAD39C39C0C Accuracy: -m0
  Conclusion: CDDA 100%
  Signature: 06A7AC1A333FB208984CE26EAFE3802E723D7376
FILE: 06 - Etude in Schwarz.flac
  Size: 42613983 Hash: 6D2C68E420EA02B4AC1FC2F3207BD970 Accuracy: -m0
  Conclusion: CDDA 100%
  Signature: FF8E493B44E86EB49B52861B2BCBC4D619E10F6C
FILE: 07 - Her Sister.flac
  Size: 16324216 Hash: EB6543A732DBE6FBD6514294FFE9960C Accuracy: -m0
  Conclusion: CDDA 100%
  Signature: 6A09B21199D40BBFE54AC95D04BDCE759A3FBF8E
FILE: 08 - Klappern.flac
  Size: 7115865 Hash: 76498DDC86A2869016B81F9497B8CA7A Accuracy: -m0
  Conclusion: CDDA 100%
  Signature: 2E5B048183D054E059D21536732649F8271441AD
FILE: 09 - Overload.flac
  Size: 31108234 Hash: CE7DBA3B3C25316CAF50525A03198EFB Accuracy: -m0
  Conclusion: CDDA 100%
  Signature: DB377F19514B4A4F405EF9E06087105FA5881A6E
FILE: 10 - Waiting for Snow.flac
  Size: 30455337 Hash: 7F32074674BC35AF41AA098AF956C2A4 Accuracy: -m0
  Conclusion: CDDA 100%
  Signature: D83CBE715CE792BF958E693B01E21E5ABB401AAA
FILE: 11 - Pelasgos, Pt. 7.flac
  Size: 31320311 Hash: 89A1C4B95CB64E242F119825C69FB0A7 Accuracy: -m0
  Conclusion: CDDA 100%
  Signature: 4F948B5B6B4DA171E1945EB8B02F9D61BD12DC81
FILE: 12 - Run.flac
  Size: 27026228 Hash: F3B423969B5A518FE5CC8141EA73E217 Accuracy: -m0
  Conclusion: CDDA 100%
  Signature: F1EEB5BDD2CE7111CF0AD08E3BCBB42D2B42E2BE

 

Скачивание доступно после регистрации!!
Приватный:
Нет (DHT включён)
Размер:
283.00 Мб (296,747,449 байт) » файлов: 17
Участники:
15 раздают, 1 качают (16 участников всего)
Внешние участники:
--- [ Обновить ]
22:52
69
RSS
Нет комментариев. Ваш будет первым!