Поиск

2018 Achim Kirchmair Trio - Going To Ladakh {O-Tone}

2018 Achim Kirchmair Trio - Going To Ladakh {O-Tone}
Стили:

Состав:
  • Achim Kirchmair / guit, comp
  • Ali Angerer / tuba, comp
  • Andjelko Stupar / drums

Носитель: WEB
Дата издания: 06 апреля 2018
Издатель (лейбл): Web Release (O-Tone Records)
Страна исполнителя (группы): Germany
Аудиокодек: FLAC (*.flac)
Тип рипа: tracks
Битрейт аудио: lossless
Продолжительность: 59:52 min
Источник (релизер): qobuz.com
Наличие сканов в содержимом раздачи: 

Треклист:
01. San Pol. 5:51
02. Naron. 8:15
03. On The Road. 4:22
04. Going To Ladakh. 8:14
05. Waltz Me. 5:27
06. Do Coracau. 5:19
07. 1301 Miles. 6:53
08. You Left Us Alone. 4:13
09. Bilk. 5:18

 
DRM.log
foobar2000 1.3.8 / Dynamic Range Meter 1.1.1
log date: 2018-05-09 21:54:55
--------------------------------------------------------------------------------
Analyzed: Achim Kirchmair Trio / Going to Ladakh
--------------------------------------------------------------------------------
DR         Peak         RMS     Duration Track
--------------------------------------------------------------------------------
DR10      -0.51 dB   -13.76 dB      5:51 01-San Pol
DR11      -0.52 dB   -12.93 dB      8:16 02-Naron
DR12      -1.07 dB   -15.51 dB      4:23 03-On the Road
DR10      -0.59 dB   -13.75 dB      8:14 04-Going to Ladakh
DR11      -0.55 dB   -13.55 dB      5:28 05-Waltz Me
DR11      -0.53 dB   -14.24 dB      5:20 06-Do Coracau
DR11      -0.55 dB   -14.32 dB      6:53 07-1301 Miles
DR11      -0.54 dB   -13.08 dB      4:14 08-You Left Us Alone
DR9       -0.52 dB   -11.75 dB      5:18 09-Bilk
DR12      -0.54 dB   -15.25 dB      6:01 10-Love
--------------------------------------------------------------------------------
Number of tracks:  10
Official DR value: DR11
Samplerate:        44100 Hz
Channels:          2
Bits per sample:   16
Bitrate:           771 kbps
Codec:             FLAC
================================================================================
 
Лог проверки качества
-----------------------
DON'T MODIFY THIS FILE
-----------------------
PERFORMER: auCDtect Task Manager, ver. 1.6.0 RC1 build 1.6.0.1
Copyright (c) 2008-2010 y-soft. All rights reserved
http://y-soft.org
ANALYZER: auCDtect: CD records authenticity detector, version 0.8.2
Copyright (c) 2004 Oleg Berngardt. All rights reserved.
Copyright (c) 2004 Alexander Djourik. All rights reserved.
FILE: 01 - San Pol.flac
  Size: 31753237 Hash: CB515BB44DBE6EE2727570F20C8EDB70 Accuracy: -m0
  Conclusion: CDDA 62%
  Signature: 1F8E064EBDA798E567451DA388A55F4F7660D3DD
FILE: 02 - Naron.flac
  Size: 50097049 Hash: 117F46D88ECEDB6E3854FA6F860A9AAD Accuracy: -m0
  Conclusion: CDDA 100%
  Signature: C7D966D790CA1B74332F224C8713C0CC09CD2584
FILE: 03 - On the Road.flac
  Size: 26692716 Hash: 91DB679BFDAE6C9451014E0C67E09A2E Accuracy: -m0
  Conclusion: CDDA 100%
  Signature: 74346989CB2F7D178735C45A7CE63F86ED59D5BE
FILE: 04 - Going to Ladakh.flac
  Size: 47026579 Hash: 82038F039DC58BE8412164ACD886CC32 Accuracy: -m0
  Conclusion: CDDA 100%
  Signature: AB04D553B40D04233DAF4C1019D2A530E1D89A62
FILE: 05 - Waltz Me.flac
  Size: 33575704 Hash: 106F6AC433296DF7DFE33EB8B32E2561 Accuracy: -m0
  Conclusion: CDDA 100%
  Signature: CF8288EDC2B8B23A6317C0FD4E8A6B91ECBF0FC3
FILE: 06 - Do Coracau.flac
  Size: 31597483 Hash: 8A51444322ADE5C3A01A85C1C2DC1FDE Accuracy: -m0
  Conclusion: CDDA 100%
  Signature: 76FE95D35B8637F43BC985A12FFFD6EE9E49B2F8
FILE: 07 - 1301 Miles.flac
  Size: 39500507 Hash: AB79EBC7C31A81D8DB0944FD73DBB7CB Accuracy: -m0
  Conclusion: CDDA 100%
  Signature: 07A24EFAC60F68191F2BC2DA2FC43BBF836E9166
FILE: 08 - You Left Us Alone.flac
  Size: 27420622 Hash: AA48BCC793E950A108CB517B42598FCC Accuracy: -m0
  Conclusion: CDDA 100%
  Signature: 9D11337F315202EA97793A7836953ED210993A28
FILE: 09 - Bilk.flac
  Size: 33815372 Hash: BC10A1BD7C0C2A2BC1AC048C7BD9F056 Accuracy: -m0
  Conclusion: CDDA 100%
  Signature: 03CD2583D26B72D60331F91A348CF0381F65313E
FILE: 10 - Love.flac
  Size: 34806161 Hash: 18DE593B7296202E7024E365EAEA8C2A Accuracy: -m0
  Conclusion: CDDA 99%
  Signature: 6FD9860F0EB318AAB00B3F7C0D2DAE0BFB16A162

 

Приватный:
Нет (DHT включён)
Размер:
342.32 Мб (358,950,272 байт) » файлов: 17
Участники:
3 раздают, 1 качают (4 участников всего)
Внешние участники:
--- [ Обновить ]
23:01
57
RSS
Нет комментариев. Ваш будет первым!