Поиск

2018 Emmet Cohen - Masters Legacy Series Volume 2 {Cellar CL062917}

2018 Emmet Cohen - Masters Legacy Series Volume 2 {Cellar CL062917}
Стили:

Состав:
  • Emmet Cohen — piano
  • Ron Carter — bass
  • Evan Sherman — drums

Носитель: CD
Год издания: 2018
Издатель (лейбл): Cellar Live
Номер по каталогу: CL062917
Аудиокодек: FLAC (*.flac)
Тип рипа: tracks+.cue
Битрейт аудио: lossless
Продолжительность: 01:11:39
Источник (релизер): www
Наличие сканов в содержимом раздачи: нет
Продолжительность: 01:11:39

Треклист:
01. All of You [10:12]
02. Opus One [08:40]
03. Salute to Cedar: Hindsight [00:00]
04. Salute to Cedar: Holy Land [07:17]
05. Salute to Cedar: Dear Truth [03:00]
06. Salute to Cedar: It's About Time [07:32]
07. Any Old Time [07:14]
08. Hatzi Kaddish-Intro [01:08]
09. Hatzi Kaddish [07:48]
10. Light Blue [06:53]
11. Ron Carter Speaks [04:02]
12. Joshua [07:50]

 
Лог создания рипа
Exact Audio Copy V1.3 from 2. September 2016
EAC extraction logfile from 7. May 2018, 19:05
E. Cohen featuring R. Carter & E. Sherman / Masters Legacy Series Volume 2
Used drive  : hp      DVDRW  DU8A6SH   Adapter: 1  ID: 0
Read mode               : Secure
Utilize accurate stream : Yes
Defeat audio cache      : Yes
Make use of C2 pointers : No
Read offset correction                      : 6
Overread into Lead-In and Lead-Out          : No
Fill up missing offset samples with silence : Yes
Delete leading and trailing silent blocks   : No
Null samples used in CRC calculations       : Yes
Used interface                              : Native Win32 interface for Win NT & 2000
Gap handling                                : Appended to previous track
Used output format              : User Defined Encoder
Selected bitrate                : 128 kBit/s
Quality                         : High
Add ID3 tag                     : No
Command line compressor         : C:\Program Files (x86)\Exact Audio Copy\Flac\flac.exe
Additional command line options : -8 -e -p -V -T "ARTIST=%artist%" -T "TITLE=%title%" -T "ALBUM=%albumtitle%" -T "DATE=%year%" -T "TRACKNUMBER=%tracknr%" -T "GENRE=%genre%" -T "PERFORMER=%albuminterpret%" -T "COMPOSER=%composer%" %haslyrics%--tag-from-file=LYRICS="%lyricsfile%"%haslyrics% -T "ALBUMARTIST=%albumartist%" -T "DISCNUMBER=%cdnumber%" -T "TOTALDISCS=%totalcds%" -T "TOTALTRACKS=%numtracks%" -T "COMMENT=%comment%" %source% -o %dest%
TOC of the extracted CD
     Track |   Start  |  Length  | Start sector | End sector
    ---------------------------------------------------------
        1  |  0:00.00 | 10:14.30 |         0    |    46079
        2  | 10:14.30 |  8:42.44 |     46080    |    85273
        3  | 18:56.74 |  4:25.03 |     85274    |   105151
        4  | 23:22.02 |  7:17.04 |    105152    |   137930
        5  | 30:39.06 |  3:00.55 |    137931    |   151485
        6  | 33:39.61 |  7:34.07 |    151486    |   185542
        7  | 41:13.68 |  7:16.19 |    185543    |   218261
        8  | 48:30.12 |  1:08.22 |    218262    |   223383
        9  | 49:38.34 |  7:50.53 |    223384    |   258686
       10  | 57:29.12 |  6:53.02 |    258687    |   289663
       11  | 64:22.14 |  4:02.15 |    289664    |   307828
       12  | 68:24.29 |  7:50.19 |    307829    |   343097
Track  1
     Filename C:\EAC Rips\E. Cohen feat. R. Carter & E. Sherman - Masters Legacy Series Vol. 2 (2018) [FLAC]\01 - All of You.wav
     Pre-gap length  0:00:02.00
     Peak level 78.6 %
     Extraction speed 1.4 X
     Track quality 100.0 %
     Test CRC 3FD12375
     Copy CRC 3FD12375
     Track not present in AccurateRip database
     Copy OK
Track  2
     Filename C:\EAC Rips\E. Cohen feat. R. Carter & E. Sherman - Masters Legacy Series Vol. 2 (2018) [FLAC]\02 - Opus One.wav
     Pre-gap length  0:00:02.00
     Peak level 94.9 %
     Extraction speed 1.6 X
     Track quality 99.9 %
     Test CRC 95581113
     Copy CRC 95581113
     Track not present in AccurateRip database
     Copy OK
Track  3
     Filename C:\EAC Rips\E. Cohen feat. R. Carter & E. Sherman - Masters Legacy Series Vol. 2 (2018) [FLAC]\03 - Salute to Cedar- Hindsight.wav
     Pre-gap length  0:00:02.00
     Peak level 94.9 %
     Extraction speed 1.7 X
     Track quality 100.0 %
     Test CRC D7BD1C44
     Copy CRC D7BD1C44
     Track not present in AccurateRip database
     Copy OK
Track  4
     Filename C:\EAC Rips\E. Cohen feat. R. Carter & E. Sherman - Masters Legacy Series Vol. 2 (2018) [FLAC]\04 - Salute to Cedar- Holy Land.wav
     Pre-gap length  0:00:00.01
     Peak level 94.9 %
     Extraction speed 1.9 X
     Track quality 100.0 %
     Test CRC BF5480A9
     Copy CRC BF5480A9
     Track not present in AccurateRip database
     Copy OK
Track  5
     Filename C:\EAC Rips\E. Cohen feat. R. Carter & E. Sherman - Masters Legacy Series Vol. 2 (2018) [FLAC]\05 - Salute to Cedar- Dear Truth.wav
     Pre-gap length  0:00:00.01
     Peak level 94.9 %
     Extraction speed 1.8 X
     Track quality 100.0 %
     Test CRC BD422685
     Copy CRC BD422685
     Track not present in AccurateRip database
     Copy OK
Track  6
     Filename C:\EAC Rips\E. Cohen feat. R. Carter & E. Sherman - Masters Legacy Series Vol. 2 (2018) [FLAC]\06 - Salute to Cedar- It's About Time.wav
     Peak level 94.9 %
     Extraction speed 2.1 X
     Track quality 100.0 %
     Test CRC 7193DA61
     Copy CRC 7193DA61
     Track not present in AccurateRip database
     Copy OK
Track  7
     Filename C:\EAC Rips\E. Cohen feat. R. Carter & E. Sherman - Masters Legacy Series Vol. 2 (2018) [FLAC]\07 - Any Old Time.wav
     Pre-gap length  0:00:02.00
     Peak level 94.9 %
     Extraction speed 2.1 X
     Track quality 99.9 %
     Test CRC DF5919B2
     Copy CRC DF5919B2
     Track not present in AccurateRip database
     Copy OK
Track  8
     Filename C:\EAC Rips\E. Cohen feat. R. Carter & E. Sherman - Masters Legacy Series Vol. 2 (2018) [FLAC]\08 - Hatzi Kaddish-Intro.wav
     Pre-gap length  0:00:02.00
     Peak level 47.7 %
     Extraction speed 1.6 X
     Track quality 100.0 %
     Test CRC 477CDF4F
     Copy CRC 477CDF4F
     Track not present in AccurateRip database
     Copy OK
Track  9
     Filename C:\EAC Rips\E. Cohen feat. R. Carter & E. Sherman - Masters Legacy Series Vol. 2 (2018) [FLAC]\09 - Hatzi Kaddish.wav
     Peak level 94.9 %
     Extraction speed 2.4 X
     Track quality 100.0 %
     Test CRC 317F73C0
     Copy CRC 317F73C0
     Track not present in AccurateRip database
     Copy OK
Track 10
     Filename C:\EAC Rips\E. Cohen feat. R. Carter & E. Sherman - Masters Legacy Series Vol. 2 (2018) [FLAC]\10 - Light Blue.wav
     Pre-gap length  0:00:02.00
     Peak level 93.9 %
     Extraction speed 2.5 X
     Track quality 100.0 %
     Test CRC 7AD3B423
     Copy CRC 7AD3B423
     Track not present in AccurateRip database
     Copy OK
Track 11
     Filename C:\EAC Rips\E. Cohen feat. R. Carter & E. Sherman - Masters Legacy Series Vol. 2 (2018) [FLAC]\11 - Ron Carter Speaks.wav
     Pre-gap length  0:00:00.01
     Peak level 59.2 %
     Extraction speed 2.5 X
     Track quality 100.0 %
     Test CRC D47D88F9
     Copy CRC D47D88F9
     Track not present in AccurateRip database
     Copy OK
Track 12
     Filename C:\EAC Rips\E. Cohen feat. R. Carter & E. Sherman - Masters Legacy Series Vol. 2 (2018) [FLAC]\12 - Joshua.wav
     Peak level 94.9 %
     Extraction speed 2.7 X
     Track quality 100.0 %
     Test CRC E24277B5
     Copy CRC E24277B5
     Track not present in AccurateRip database
     Copy OK
None of the tracks are present in the AccurateRip database
No errors occurred
End of status report
---- CUETools DB Plugin V2.1.6
[CTDB TOCID: 18C3SC4bt8uSg2EkeTu.xFhko4o-] found
Submit result: 18C3SC4bt8uSg2EkeTu.xFhko4o- has been confirmed
Track | CTDB Status
  1   | (2/2) Accurately ripped
  2   | (2/2) Accurately ripped
  3   | (2/2) Accurately ripped
  4   | (2/2) Accurately ripped
  5   | (2/2) Accurately ripped
  6   | (2/2) Accurately ripped
  7   | (2/2) Accurately ripped
  8   | (2/2) Accurately ripped
  9   | (2/2) Accurately ripped
 10   | (1/2) Accurately ripped
 11   | (2/2) Accurately ripped
 12   | (2/2) Accurately ripped
==== Log checksum 4AF6FCC034D51A07FA7E48181767E607DBE5AE994A49497EC1F5BA1CB8E23782 ====
 
Содержание индексной карты (.CUE)
REM GENRE "jazz, bop, hard bop, post bop"
REM DATE 2018
REM DISCID 9811DE0C
REM COMMENT "ExactAudioCopy v1.3"
CATALOG 0875531014235
PERFORMER "E. Cohen featuring R. Carter & E. Sherman"
TITLE "Masters Legacy Series Volume 2"
FILE "01 - All of You.wav" WAVE
  TRACK 01 AUDIO
    TITLE "All of You"
    PERFORMER "E. Cohen featuring R. Carter & E. Sherman"
    REM COMPOSER "C. Porter"
    ISRC CACK41801101
    INDEX 01 00:00:00
  TRACK 02 AUDIO
    TITLE "Opus One"
    PERFORMER "E. Cohen featuring R. Carter & E. Sherman"
    REM COMPOSER "S. Oliver"
    ISRC CACK41801102
    INDEX 00 10:12:30
FILE "02 - Opus One.wav" WAVE
    INDEX 01 00:00:00
  TRACK 03 AUDIO
    TITLE "Salute to Cedar: Hindsight"
    PERFORMER "E. Cohen featuring R. Carter & E. Sherman"
    REM COMPOSER "C. Walton"
    ISRC CACK41801103
    INDEX 00 08:40:44
FILE "03 - Salute to Cedar- Hindsight.wav" WAVE
    INDEX 01 00:00:00
  TRACK 04 AUDIO
    TITLE "Salute to Cedar: Holy Land"
    PERFORMER "E. Cohen featuring R. Carter & E. Sherman"
    REM COMPOSER "C. Walton"
    ISRC CACK41801104
    INDEX 00 04:25:02
FILE "04 - Salute to Cedar- Holy Land.wav" WAVE
    INDEX 01 00:00:00
  TRACK 05 AUDIO
    TITLE "Salute to Cedar: Dear Truth"
    PERFORMER "E. Cohen featuring R. Carter & E. Sherman"
    REM COMPOSER "C. Walton"
    ISRC CACK41801105
    INDEX 00 07:17:03
FILE "05 - Salute to Cedar- Dear Truth.wav" WAVE
    INDEX 01 00:00:00
FILE "06 - Salute to Cedar- It's About Time.wav" WAVE
  TRACK 06 AUDIO
    TITLE "Salute to Cedar: It's About Time"
    PERFORMER "E. Cohen featuring R. Carter & E. Sherman"
    REM COMPOSER "R. Carter"
    ISRC CACK41801106
    INDEX 01 00:00:00
  TRACK 07 AUDIO
    TITLE "Any Old Time"
    PERFORMER "E. Cohen featuring R. Carter & E. Sherman"
    REM COMPOSER "A. Shaw"
    ISRC CACK41801107
    INDEX 00 07:32:07
FILE "07 - Any Old Time.wav" WAVE
    INDEX 01 00:00:00
  TRACK 08 AUDIO
    TITLE "Hatzi Kaddish-Intro"
    PERFORMER "E. Cohen featuring R. Carter & E. Sherman"
    REM COMPOSER "Traditional"
    ISRC CACK41801108
    INDEX 00 07:14:19
FILE "08 - Hatzi Kaddish-Intro.wav" WAVE
    INDEX 01 00:00:00
FILE "09 - Hatzi Kaddish.wav" WAVE
  TRACK 09 AUDIO
    TITLE "Hatzi Kaddish"
    PERFORMER "E. Cohen featuring R. Carter & E. Sherman"
    REM COMPOSER "Traditional"
    ISRC CACK41801109
    INDEX 01 00:00:00
  TRACK 10 AUDIO
    TITLE "Light Blue"
    PERFORMER "E. Cohen featuring R. Carter & E. Sherman"
    REM COMPOSER "R. Carter"
    ISRC CACK41801110
    INDEX 00 07:48:53
FILE "10 - Light Blue.wav" WAVE
    INDEX 01 00:00:00
  TRACK 11 AUDIO
    TITLE "Ron Carter Speaks"
    PERFORMER "E. Cohen featuring R. Carter & E. Sherman"
    REM COMPOSER "R. Carter"
    ISRC CACK41801111
    INDEX 00 06:53:01
FILE "11 - Ron Carter Speaks.wav" WAVE
    INDEX 01 00:00:00
FILE "12 - Joshua.wav" WAVE
  TRACK 12 AUDIO
    TITLE "Joshua"
    PERFORMER "E. Cohen featuring R. Carter & E. Sherman"
    REM COMPOSER "V. Feldman"
    ISRC CACK41801112
    INDEX 01 00:00:00

 

Приватный:
Нет (DHT включён)
Размер:
400.97 Мб (420,452,217 байт) » файлов: 17
Участники:
7 раздают, 1 качают (8 участников всего)
Внешние участники:
--- [ Обновить ]
23:10
57
RSS
Нет комментариев. Ваш будет первым!