Поиск

2018 Arild Andersen - In-House Science (Live) {ECM 2594}

2018 Arild Andersen - In-House Science (Live) {ECM 2594}
Стили:
Издатель (лейбл):

Состав:
  • Arild Andersen — Double Bass
  • Paolo Vinaccia — Drums
  • Tommy Smith — Tenor Saxophone

Носитель: CD
Дата издания: 23 марта 2018
Номер по каталогу: ECM 2594
Аудиокодек: FLAC (*.flac)
Тип рипа: tracks+.cue
Битрейт аудио: lossless
Продолжительность: 00:55:30
Источник (релизер): www
Наличие сканов в содержимом раздачи: нет

Треклист:
01. Mira [09:50]
02. Science [11:10]
03. Venice [08:44]
04. North Of The Northwind [08:35]
05. Blussy [08:59]
06. In-House [08:10]

 
Лог создания рипа
X Lossless Decoder version 20160920 (149.2)
XLD extraction logfile from 2018-05-09 16:43:09 +0200
Arild Andersen / In-House Science
Used drive : HL-DT-ST DVDRW  GX40N (revision RQ00)
Media type : Pressed CD
Ripper mode             : XLD Secure Ripper
Disable audio cache     : OK for the drive with a cache less than 1375KiB
Make use of C2 pointers : NO
Read offset correction  : 6
Max retry count         : 20
Gap status              : Analyzed, Appended (except HTOA)
TOC of the extracted CD
     Track |   Start  |  Length  | Start sector | End sector
    ---------------------------------------------------------
        1  | 00:00:00 | 09:50:01 |         0    |    44250
        2  | 09:50:01 | 11:10:73 |     44251    |    94573
        3  | 21:00:74 | 08:44:57 |     94574    |   133930
        4  | 29:45:56 | 08:35:53 |    133931    |   172608
        5  | 38:21:34 | 08:59:12 |    172609    |   213045
        6  | 47:20:46 | 08:10:18 |    213046    |   249813
AccurateRip Summary
    Disc not found in AccurateRip DB.
All Tracks
    Album gain               : 0.72 dB
    Peak                     : 0.999573
    Statistics
        Read error                           : 0
        Jitter error (maybe fixed)           : 0
        Retry sector count                   : 0
        Damaged sector count                 : 0
Track 01
    Filename : /rips/Arild Andersen - In-House Science (2018) [FLAC]/01 Mira.flac
    Pre-gap length : 00:02:00
    Track gain               : -0.22 dB
    Peak                     : 0.999573
    CRC32 hash (test run)    : D7612394
    CRC32 hash               : D7612394
    CRC32 hash (skip zero)   : 1A32767D
    AccurateRip v1 signature : 59E4AA78
    AccurateRip v2 signature : DCAC9CB4
        ->Track not present in AccurateRip database.
    Statistics
        Read error                           : 0
        Jitter error (maybe fixed)           : 0
        Retry sector count                   : 0
        Damaged sector count                 : 0
Track 02
    Filename : /rips/Arild Andersen - In-House Science (2018) [FLAC]/02 Science.flac
    Track gain               : 1.77 dB
    Peak                     : 0.893341
    CRC32 hash (test run)    : 34EE4E64
    CRC32 hash               : 34EE4E64
    CRC32 hash (skip zero)   : B19384C1
    AccurateRip v1 signature : 147DD6C3
    AccurateRip v2 signature : 3A86E880
        ->Track not present in AccurateRip database.
    Statistics
        Read error                           : 0
        Jitter error (maybe fixed)           : 0
        Retry sector count                   : 0
        Damaged sector count                 : 0
Track 03
    Filename : /rips/Arild Andersen - In-House Science (2018) [FLAC]/03 Venice.flac
    Track gain               : 0.98 dB
    Peak                     : 0.938293
    CRC32 hash (test run)    : 06A04234
    CRC32 hash               : 06A04234
    CRC32 hash (skip zero)   : E38DC813
    AccurateRip v1 signature : 7C4DBCCE
    AccurateRip v2 signature : 9932CFF2
        ->Track not present in AccurateRip database.
    Statistics
        Read error                           : 0
        Jitter error (maybe fixed)           : 0
        Retry sector count                   : 0
        Damaged sector count                 : 0
Track 04
    Filename : /rips/Arild Andersen - In-House Science (2018) [FLAC]/04 North Of The Northwind.flac
    Track gain               : 0.50 dB
    Peak                     : 0.738098
    CRC32 hash (test run)    : C73F8D49
    CRC32 hash               : C73F8D49
    CRC32 hash (skip zero)   : 05CEBC16
    AccurateRip v1 signature : A29A291F
    AccurateRip v2 signature : 37C2F666
        ->Track not present in AccurateRip database.
    Statistics
        Read error                           : 0
        Jitter error (maybe fixed)           : 0
        Retry sector count                   : 0
        Damaged sector count                 : 0
Track 05
    Filename : /rips/Arild Andersen - In-House Science (2018) [FLAC]/05 Blussy.flac
    Track gain               : 0.56 dB
    Peak                     : 0.991730
    CRC32 hash (test run)    : 4AEC04F9
    CRC32 hash               : 4AEC04F9
    CRC32 hash (skip zero)   : 4E2B733A
    AccurateRip v1 signature : A5BEB43F
    AccurateRip v2 signature : B325D014
        ->Track not present in AccurateRip database.
    Statistics
        Read error                           : 0
        Jitter error (maybe fixed)           : 0
        Retry sector count                   : 0
        Damaged sector count                 : 0
Track 06
    Filename : /rips/Arild Andersen - In-House Science (2018) [FLAC]/06 In-House.flac
    Track gain               : 1.35 dB
    Peak                     : 0.869049
    CRC32 hash (test run)    : A07E664A
    CRC32 hash               : A07E664A
    CRC32 hash (skip zero)   : F5842978
    AccurateRip v1 signature : 90D6BA02
    AccurateRip v2 signature : D8FFF97D
        ->Track not present in AccurateRip database.
    Statistics
        Read error                           : 0
        Jitter error (maybe fixed)           : 0
        Retry sector count                   : 0
        Damaged sector count                 : 0
No errors occurred
End of status report
-----BEGIN XLD SIGNATURE-----
R92vdU6J4kEdwUw20Zf3jnqT8yIi39WEKTL6q7dNzB8quOuuHoWgBef8EEb7wyoDGmplSsIOE5rh5NCgBpr1cepUX8NcYAz.EfUkIQq
-----END XLD SIGNATURE-----
 
Содержание индексной карты (.CUE)
TITLE "In-House Science"
PERFORMER "Arild Andersen"
CATALOG 0602567168973
REM GENRE "Jazz"
REM DATE "2018"
REM DISCID 4C0D0206
REM REPLAYGAIN_ALBUM_GAIN 0.72 dB
REM REPLAYGAIN_ALBUM_PEAK 0.999573
FILE "01 Mira.flac" WAVE
  TRACK 01 AUDIO
    TITLE "Mira"
    ISRC DEB331659401
    REM REPLAYGAIN_TRACK_GAIN -0.22 dB
    REM REPLAYGAIN_TRACK_PEAK 0.999573
    INDEX 01 00:00:00
FILE "02 Science.flac" WAVE
  TRACK 02 AUDIO
    TITLE "Science"
    ISRC DEB331659402
    REM REPLAYGAIN_TRACK_GAIN 1.77 dB
    REM REPLAYGAIN_TRACK_PEAK 0.893341
    INDEX 01 00:00:00
FILE "03 Venice.flac" WAVE
  TRACK 03 AUDIO
    TITLE "Venice"
    ISRC DEB331659403
    REM REPLAYGAIN_TRACK_GAIN 0.98 dB
    REM REPLAYGAIN_TRACK_PEAK 0.938293
    INDEX 01 00:00:00
FILE "04 North Of The Northwind.flac" WAVE
  TRACK 04 AUDIO
    TITLE "North Of The Northwind"
    ISRC DEB331659404
    REM REPLAYGAIN_TRACK_GAIN 0.50 dB
    REM REPLAYGAIN_TRACK_PEAK 0.738098
    INDEX 01 00:00:00
FILE "05 Blussy.flac" WAVE
  TRACK 05 AUDIO
    TITLE "Blussy"
    ISRC DEB331659405
    REM REPLAYGAIN_TRACK_GAIN 0.56 dB
    REM REPLAYGAIN_TRACK_PEAK 0.991730
    INDEX 01 00:00:00
FILE "06 In-House.flac" WAVE
  TRACK 06 AUDIO
    TITLE "In-House"
    ISRC DEB331659406
    REM REPLAYGAIN_TRACK_GAIN 1.35 dB
    REM REPLAYGAIN_TRACK_PEAK 0.869049
    INDEX 01 00:00:00

 

Скачивание доступно после регистрации!!
Приватный:
Нет (DHT включён)
Размер:
293.82 Мб (308,096,704 байт) » файлов: 9
Участники:
11 раздают, 1 качают (12 участников всего)
Внешние участники:
--- [ Обновить ]
22:41
62
RSS
Нет комментариев. Ваш будет первым!