Поиск

2018 Kenny Barron Quintet - Concentric Circles {Decca} [24-96]

2018 Kenny Barron Quintet - Concentric Circles {Decca} [24-96]
Издатель (лейбл):

Состав:
  • Kenny Barron - p
  • Kiyoshi Kitagawa - b
  • Johnathan Blake - d
  • Mike Rodriquez - tp, flgn
  • Dayna Stephens - ss, ts

Формат записи/Источник записи: [TR24][OF]
Наличие водяных знаков: Нет
Дата записи диска: 19-20 марта 2017
Место записи: Systems Two Studios, Brooklyn, NY
Дата издания диска: 4 мая 2018
Продолжительность: 66:13
Контейнер: FLAC (*.flac)
Тип рипа: tracks
Разрядность: 24/96
Формат: PCM
Количество каналов: 2.0
Наличие сканов в содержимом раздачи: Только обложка альбома
Источник: highresaudio.com

Треклист:
01. DPW (4:51)
02. Concentric Circles (7:27)
03. Blue Waters (5:40)
04. A Short Journey (5:29)
05. Aquele Frevo Axe (8:15)
06. Von Hangman (4:43)
07. In The Dark (7:01)
08. Baile (5:17)
09. L's Bop (5:55)
10. I'm Just Sayin' (6:51)
11. Reflections (4:44)

 
Лог проверки качества
foobar2000 1.3.9 / Dynamic Range Meter 1.1.1
log date: 2018-05-08 14:17:24
--------------------------------------------------------------------------------
Analyzed: Kenny Barron Quintet / Concentric Circles
--------------------------------------------------------------------------------
DR         Peak         RMS     Duration Track
--------------------------------------------------------------------------------
DR9       -0.80 dB   -11.07 dB      4:51 01-DPW
DR10      -0.80 dB   -13.01 dB      7:27 02-Concentric Circles
DR9       -0.80 dB   -11.66 dB      5:40 03-Blue Waters
DR11      -0.80 dB   -14.25 dB      5:29 04-A Short Journey
DR11      -0.80 dB   -14.27 dB      8:15 05-Aquele Frevo Axe
DR9       -0.80 dB   -11.15 dB      4:43 06-Von Hangman
DR13      -0.80 dB   -16.35 dB      7:01 07-In The Dark
DR10      -0.80 dB   -11.77 dB      5:17 08-Baile
DR9       -0.80 dB   -11.18 dB      5:55 09-L's Bop
DR10      -0.80 dB   -12.28 dB      6:51 10-I'm Just Sayin'
DR12      -0.80 dB   -14.91 dB      4:44 11-Reflections
--------------------------------------------------------------------------------
Number of tracks:  11
Official DR value: DR10
Samplerate:        96000 Hz
Channels:          2
Bits per sample:   24
Bitrate:           2521 kbps
Codec:             FLAC
================================================================================
 
Covers

 

Приватный:
Нет (DHT включён)
Размер:
1.39 Гб (1,493,527,963 байт) » файлов: 14
Участники:
0 раздают, 1 качают (1 участников всего)
Внешние участники:
--- [ Обновить ]
Скорость:
0/c 33.00 байт/c
18:31
64
RSS
Нет комментариев. Ваш будет первым!