Поиск

2018 Nik Bartsch's Ronin - Awase {ECM, DG} [24-88,2]

2018 Nik Bartsch's Ronin - Awase {ECM, DG} [24-88,2]
Стили:
Издатель (лейбл):
Треклист:

Формат записи/Источник записи: [TR24][OF]
Наличие водяных знаков: Нет
Год издания/переиздания диска: 2018
Издатель (лейбл): ECM Records/Deutsche Grammophon
Продолжительность: 65:21
Контейнер: FLAC (*.flac)
Тип рипа: tracks
Разрядность: 24/88,2
Формат: PCM
Количество каналов: 2.0
Наличие сканов в содержимом раздачи: Буклет PDF
Источник: hdtracks.com

Треклист:
01. Modul 60 (5:08)
02. Modul 58 (18:19)
03. A (8:23)
04. Modul 36 (13:38)
05. Modul 34 (8:51)
06. Modul 59 (11:01)

 
Лог проверки качества
foobar2000 1.3.9 / Dynamic Range Meter 1.1.1
log date: 2018-05-08 16:42:29
--------------------------------------------------------------------------------
Analyzed: Nik Bartsch's Ronin / Awase
--------------------------------------------------------------------------------
DR         Peak         RMS     Duration Track
--------------------------------------------------------------------------------
DR14      -0.63 dB   -21.10 dB      5:08 01-Modul 60
DR12      -0.47 dB   -16.17 dB     18:19 02-Modul 58
DR12      -0.52 dB   -16.24 dB      8:23 03-A
DR11      -0.47 dB   -14.90 dB     13:38 04-Modul 36
DR12      -0.50 dB   -15.21 dB      8:51 05-Modul 34
DR14      -0.52 dB   -18.23 dB     11:01 06-Modul 59
--------------------------------------------------------------------------------
Number of tracks:  6
Official DR value: DR13
Samplerate:        88200 Hz
Channels:          2
Bits per sample:   24
Bitrate:           2512 kbps
Codec:             FLAC
================================================================================

 

Приватный:
Нет (DHT включён)
Размер:
1.17 Гб (1,252,581,068 байт) » файлов: 10
Участники:
2 раздают, 2 качают (4 участников всего)
Внешние участники:
7 раздают, 2 качают (9 участников всего) [ Обновить ]
Есть вопросы - пишите личное сообщение пользователю M0p94ok.
22:05
234
Нет комментариев. Ваш будет первым!