Поиск

2018 Joey Alexander - Eclipse {Motema Music} [24-96]

2018 Joey Alexander - Eclipse {Motema Music} [24-96]
Стили:
Состав:

Формат записи/Источник записи: [TR24][OF]
Наличие водяных знаков: Нет
Дата записи диска: 21-23 августа 2017
Место записи: Dreamland Recording Studios, Hurley, NY
Год издания диска: 2018
Издатель (лейбл): Motema Music
Продолжительность: 73:58
Контейнер: FLAC (*.flac)
Тип рипа: tracks
Разрядность: 24/96
Формат: PCM
Количество каналов: 2.0
Источник: hdtracks.com
Наличие сканов в содержимом раздачи: Буклет PDF

Треклист:
01. Bali (5:06)
02. Faithful (9:06)
03. Draw Me Nearer (4:42)
04. Moment's Notice (6:35)
05. Blackbird (5:02)
06. Eclipse (10:28)
07. Fourteen (8:04)
08. The Very Thought Of You (5:32)
09. Space (8:00)
10. Time Remembered (6:03)
11. Peace (5:20)

 
Лог проверки качества
foobar2000 1.3.9 / Dynamic Range Meter 1.1.1
log date: 2018-05-08 07:22:13
--------------------------------------------------------------------------------
Analyzed: Joey Alexander / Eclipse
--------------------------------------------------------------------------------
DR         Peak         RMS     Duration Track
--------------------------------------------------------------------------------
DR10      -0.45 dB   -12.47 dB      5:06 01-Bali
DR9       -0.45 dB   -12.19 dB      9:06 02-Faithful
DR10      -0.45 dB   -13.49 dB      4:42 03-Draw Me Nearer
DR10      -0.45 dB   -12.77 dB      6:35 04-Moment's Notice
DR11      -0.45 dB   -15.13 dB      5:02 05-Blackbird
DR10      -0.45 dB   -13.79 dB     10:28 06-Eclipse
DR9       -0.45 dB   -11.46 dB      8:04 07-Fourteen
DR12      -0.45 dB   -14.88 dB      5:32 08-The Very Thought Of You
DR9       -0.45 dB   -12.58 dB      8:00 09-Space
DR10      -0.45 dB   -14.76 dB      6:03 10-Time Remembered
DR12      -0.45 dB   -15.20 dB      5:20 11-Peace
--------------------------------------------------------------------------------
Number of tracks:  11
Official DR value: DR10
Samplerate:        96000 Hz
Channels:          2
Bits per sample:   24
Bitrate:           2616 kbps
Codec:             FLAC
================================================================================

 

Скачивание доступно после регистрации!!
Приватный:
Нет (DHT включён)
Размер:
1.37 Гб (1,474,510,684 байт) » файлов: 15
Участники:
1 раздают, 1 качают (2 участников всего)
Внешние участники:
--- [ Обновить ]
Скорость:
0/c 7.82 Кб/c
13:23
67
RSS
Нет комментариев. Ваш будет первым!