Вы используете незарегистрированную версию компонента "Вкладки"!

Поиск

2018 Jeff Greinke - Before Sunrise {Spotted Peccary SPM-3701} [24-96]

2018 Jeff Greinke - Before Sunrise {Spotted Peccary SPM-3701} [24-96]
Стили:
Дата издания диска:
6 апреля 2018
Номер по каталогу:
SPM-3701
Носитель:
WEB
Формат:
PCM
Тип рипа:
tracks+.cue
Количество каналов:
2.0
Разрядность/ЧД:
24/96
Битрейт аудио:
lossless
Время звучания:
00:57:17
Наличие сканов:
web
Страна-производитель диска (релиза):
USA
Релизёр (источник):
M0p94ok
Лог проверки качества
foobar2000 1.5.5 / Dynamic Range Meter 1.1.1
log date: 2020-10-11 17:22:22

--------------------------------------------------------------------------------
Analyzed: Jeff Greinke / Before Sunrise
--------------------------------------------------------------------------------

DR         Peak         RMS     Duration Track
--------------------------------------------------------------------------------
DR10      -0.31 dB   -14.03 dB      9:46 01-High Flyers of the Night Sky
DR9       -2.17 dB   -17.04 dB      7:07 02-Slow Train on an Open Plain
DR9       -0.30 dB   -14.15 dB      6:10 03-Night Watch
DR11      -1.93 dB   -15.82 dB      5:31 04-The River
DR10      -2.58 dB   -16.00 dB      4:50 05-Under Falling Stars
DR11      -1.60 dB   -16.85 dB      5:45 06-Mountains and Clouds
DR11      -2.08 dB   -19.57 dB      6:12 07-Rain, Then Snow
DR11      -2.55 dB   -17.71 dB     11:59 08-Before Sunrise
--------------------------------------------------------------------------------

Number of tracks:  8
Official DR value: DR10

Samplerate:        96000 Hz
Channels:          2
Bits per sample:   24
Bitrate:           2567 kbps
Codec:             FLAC
================================================================================
Any questions - support@pro-jazz.com. Есть вопросы - support@pro-jazz.com
17:35
207
Нет комментариев. Ваш будет первым!