Вы используете незарегистрированную версию компонента "Вкладки"!

Поиск

2017 Jonathan Saraga - Journey To A New World {Fresh Sound New Talent FSNT 535} [24-44,1]

2017 Jonathan Saraga - Journey To A New World {Fresh Sound New Talent FSNT 535} [24-44,1]
Стили:
Дата записи диска:
25 ноября 2015
Место записи:
Peter Karl Studios, New York City, NY, USA
Дата издания диска:
8 сентября 2017
Издатель (лейбл):
Номер по каталогу:
FSNT 535
Носитель:
WEB
Формат:
PCM
Тип рипа:
tracks+.cue
Количество каналов:
2.0
Разрядность/ЧД:
24/44,1
Битрейт аудио:
lossless
Наличие сканов:
web
Страна-производитель диска (релиза):
Spain
Релизёр (источник):
M0p94ok
Лог проверки качества
foobar2000 1.5.5 / Dynamic Range Meter 1.1.1
log date: 2020-10-11 21:08:45

--------------------------------------------------------------------------------
Analyzed: Jonathan Saraga / Journey to a New World
--------------------------------------------------------------------------------

DR         Peak         RMS     Duration Track
--------------------------------------------------------------------------------
DR9        0.00 dB   -11.32 dB      9:28 01-Uprising
DR9        0.00 dB   -11.90 dB     10:52 02-The Great Journey
DR8        0.00 dB   -11.72 dB      8:54 03-Firm Roots
DR10       0.00 dB   -13.88 dB      9:50 04-Sabbath Prayer
DR8        0.00 dB   -11.67 dB      8:49 05-The Guardians
DR10       0.00 dB   -13.78 dB      7:16 06-Lullaby
DR9        0.00 dB   -11.58 dB      9:17 07-The Fool on the Hill
DR8        0.00 dB   -11.51 dB      9:29 08-New World
--------------------------------------------------------------------------------

Number of tracks:  8
Official DR value: DR9

Samplerate:        44100 Hz
Channels:          2
Bits per sample:   24
Bitrate:           1533 kbps
Codec:             FLAC
================================================================================
Any questions - support@pro-jazz.com. Есть вопросы - support@pro-jazz.com
21:52
248
Нет комментариев. Ваш будет первым!